Metal Method - Metal Rhythm Extreme Guitar (2015)

Download Now

Metal Method - Metal Rhythm Extreme Guitar (2015)

Metal Method - Metal Rhythm Extreme Guitar (2015)
DVDRip | English | MP4 + MP3 jam tracks + PDF tabs | 1280 x 720 | AVC ~3371 Kbps | 29.970 fps
AAC | 128 Kbps | 48.0 KHz | 2 channels | 01:02:53 | 1.58 GB
Genre: eLearning Video / Guitar lesson (2015)

"Brutal, intense, bone crushing, skull shattering... this is Metal Rhythm Extreme! If you like Thrash metal, Speed metal, Death metal, Melodic metal, Black metal, Progressive Metal, Metalcore and other modern metal, then this program is for you!"

Metal Rhythm Extreme guitar uses real world examples to teach the techniques used by today's heaviest modern metal bands. Gain picking speed and endurance with down and alternate picking exercises. Learn to tremolo pick and practice it over a full backing track in the style of Killswitch Engage and Shadows Fall! Master gallop picking with 7 mini exercises, then practice real riffs over backing tracks in the style of Metallica, Pantera, Slayer and more. Learn how to create and play harmony rhythm guitar parts in the style of In Flames and other melodic metal bands.

With Metal Rhythm Extreme learn to play through changing tempos and time signatures. Use natural, artificial and pinch harmonics to add spice to riffs. Use large interval chords for Metalcore style breakdowns in the style of Five Finger Death Punch, Killswitch Engage and others. Practice moving pedal tones in the style of All That Remains. Stretch those hands out with large interval and string skipping riffs in the style of Lamb of God. And finally you can stop playing everything in 4/4! Discover odd time signatures including 2/4, ¾, 5/4, 5/8, 6/8, 7/8, 10/8 and 12/8!

For the ease of playing along, all exercises are taught in Standard or Drop D tuning. Proper string gauge selection for heavy down tuning is covered in the included materials.

Although Metal Rhythm Extreme guitar is designed to be challenging for an intermediate to advanced guitar player. Beginners can play the exercises slower and still increase their skills. This program includes over an hour of video, 26 total exercises and 17 backing tracks with bass and drums. Printable tab, Guitar Pro files and Metal Method forum support! So... Are you ready?!!!

General
Complete name : Metal Rhythm Extreme Video.mp4
Format
: MPEG-4
Format profile : Base Media / Version 2
Codec ID
: mp42
File size
: 1.54 GiB
Duration
: 1h 2mn
Overall bit rate mode : Variable
Overall bit rate : 3 504 Kbps
Encoded date : UTC 2014-11-11 20:46:53
Tagged date
: UTC 2014-11-11 20:46:53

Video
ID : 2
Format
: AVC
Format/Info
: Advanced Video Codec
Format profile : [email protected]
Format settings, CABAC : Yes
Format settings, ReFrames : 3 frames
Codec ID
: avc1
Codec ID/Info : Advanced Video Coding
Duration
: 1h 2mn
Bit rate mode : Variable
Bit rate
: 3 371 Kbps
Maximum bit rate : 4 000 Kbps
Width
: 1 280 pixels
Height
: 720 pixels
Display aspect ratio : 16:9
Frame rate mode : Constant
Frame rate
: 29.970 fps
Standard
: NTSC
Color space
: YUV
Chroma subsampling

: 4:2:0
Bit depth
: 8 bits
Scan type
: Progressive
Bits/(Pixel*Frame)

: 0.122
Stream size
: 1.48 GiB (96%)
Language
: English
Encoded date : UTC 2014-11-11 20:46:53
Tagged date
: UTC 2014-11-11 20:46:53

Audio
ID : 1
Format
: AAC
Format/Info
: Advanced Audio Codec
Format profile : LC
Codec ID
: 40
Duration
: 1h 2mn
Bit rate mode : Constant
Bit rate
: 128 Kbps
Channel(s)
: 2 channels
Channel positions: Front: L R
Sampling rate : 48.0 KHz
Compression mode : Lossy
Stream size
: 57.6 MiB (4%)
Language
: English
Encoded date : UTC 2014-11-11 20:46:53
Tagged date
: UTC 2014-11-11 20:46:53

Screenshots

Metal Method - Metal Rhythm Extreme Guitar (2015)

Metal Method - Metal Rhythm Extreme Guitar (2015)

Metal Method - Metal Rhythm Extreme Guitar (2015)

Metal Method - Metal Rhythm Extreme Guitar (2015)



DOWNLOAD LINKS
Buy Premium From My Links To Get Resumable Support & Max Speed & To Support Me


Links are Interchangeable - No Password - Single Extraction
Direct Download

Tags: Method, Rhythm, Extreme, Guitar

Metal Method - Metal Rhythm Extreme Guitar (2015) Download via Hotfile Rapidshare Fileserve Megaupload & FileSonic, Metal Method - Metal Rhythm Extreme Guitar (2015) free torrent downloads included crack, serial, keygen.Metal Method - Metal Rhythm Extreme Guitar (2015) Fast Download via Rapidshare Hotfile Fileserve Filesonic Megaupload, Metal Method - Metal Rhythm Extreme Guitar (2015) Torrents and Emule Download or anything related.
Leave a Comment
Your Name:
E-Mail:
Add Comments:

Enter Code: