Tom Quayle - Organic 1080p Video Backing Track Package

Download Now

Tom Quayle - Organic 1080p Video Backing Track Package

Tom Quayle - Organic 1080p Video Backing Track Package
WEBRip | English | MP4 + MP3 jam tracks + PDF booklet | 1920 x 1080 | AVC ~2075 Kbps | 25 fps
AAC | 160 Kbps | 44.1 KHz | 2 channels | 00:54:23 | 1005 MB
Genre: eLearning Video / Guitar lesson (2015)

"Hi guys, thanks so much for checking out this first video backing track package from my site. Back in November 2013 I went into Silent City studios with Garry Jackson on Bass and Dave Walsh on Drums to record a series of organic trio based backing tracks that would build and fall naturally for you guys to jam over. The concept was to make cool sounding tracks with real players that would be both fun and challenging to play over and the result is these eleven tracks with close up video of each player."

Track Listing:
1. A Harmonic Minor
2. A Lydian
3. A7 to G7
4. Bb Lydian Dominant
5. Bb7 to G7
6. Bb7 to G7 in 7/4
7. D Mixolydian
8. Dameron Groove
9. F Major to F Minor
10. Hendrix Groove I
11. Hendrix Groove II

Package contains:
-11 Video Backing tracks in 1080p with space to put your own video
-11 mp3 backing tracks at 256kbps
-PDF booklet explaining each track with soloing strategies

also You can look my other last:

General
Complete name : Bb7 to G7 in Seven (1920 x 1080).mp4
Format
: MPEG-4
Format profile : Base Media / Version 2
Codec ID
: mp42
File size
: 74.8 MiB
Duration
: 4mn 40s
Overall bit rate : 2 240 Kbps
Encoded date : UTC 2014-11-12 23:05:51
Tagged date
: UTC 2014-11-12 23:05:51
stik
:
iTunMOVI
: studiostudiocastnamedirectorsnameproducersnamecodirectorsnamecodirectorscreenwritersname

Video
ID : 1
Format
: AVC
Format/Info
: Advanced Video Codec
Format profile : [email protected]
Format settings, CABAC : No
Format settings, ReFrames : 1 frame
Format settings, GOP : M=1, N=25
Muxing mode
: Container [email protected]
Codec ID
: avc1
Codec ID/Info : Advanced Video Coding
Duration
: 4mn 40s
Bit rate
: 2 075 Kbps
Width
: 1 920 pixels
Height
: 1 080 pixels
Display aspect ratio : 16:9
Frame rate mode : Constant
Frame rate
: 25.000 fps
Color space
: YUV
Chroma subsampling

: 4:2:0
Bit depth
: 8 bits
Scan type
: Progressive
Bits/(Pixel*Frame)

: 0.040
Stream size
: 69.3 MiB (93%)
Writing library : А mҐZћ±™
Language
: English

Audio
ID : 2
Format
: AAC
Format/Info
: Advanced Audio Codec
Format profile : LC
Codec ID
: 40
Duration
: 4mn 40s
Bit rate mode : Constant
Bit rate
: 160 Kbps
Channel(s)
: 2 channels
Channel positions: Front: L R
Sampling rate : 44.1 KHz
Compression mode : Lossy
Stream size
: 5.34 MiB (7%)
Language
: English

Screenshots

Tom Quayle - Organic 1080p Video Backing Track Package

Tom Quayle - Organic 1080p Video Backing Track Package

Tom Quayle - Organic 1080p Video Backing Track Package


DOWNLOAD LINKS
Buy Premium From My Links To Get Resumable Support & Max Speed & To Support Me

Rapidgator.net:
http://rapidgator.net/file/a86e203b86959aa3898b97e7464b1973/fglmt.T.Q.O.1080p.V.B.T.P.part1.rar.html
http://rapidgator.net/file/b6d0c6446dbd6dff9d9bf5a6b249c34b/fglmt.T.Q.O.1080p.V.B.T.P.part2.rar.html
http://rapidgator.net/file/9ea85db396e31035dd0702529550cacf/fglmt.T.Q.O.1080p.V.B.T.P.part3.rar.html
http://rapidgator.net/file/e379753754d9bfa7a665c94232e34a91/fglmt.T.Q.O.1080p.V.B.T.P.part4.rar.html
http://rapidgator.net/file/b025b0a0f207e5a31492569a5e601c29/fglmt.T.Q.O.1080p.V.B.T.P.part5.rar.html
http://rapidgator.net/file/dd50386621d0305ecfe05765856245d6/fglmt.T.Q.O.1080p.V.B.T.P.part6.rar.html

Uploaded.net:
http://uploaded.net/file/rvik6ni7/fglmt.T.Q.O.1080p.V.B.T.P.part1.rar
http://uploaded.net/file/zkn80m8t/fglmt.T.Q.O.1080p.V.B.T.P.part2.rar
http://uploaded.net/file/9awodxa5/fglmt.T.Q.O.1080p.V.B.T.P.part3.rar
http://uploaded.net/file/vz11rskj/fglmt.T.Q.O.1080p.V.B.T.P.part4.rar
http://uploaded.net/file/wmt41vyv/fglmt.T.Q.O.1080p.V.B.T.P.part5.rar
http://uploaded.net/file/bk46ttll/fglmt.T.Q.O.1080p.V.B.T.P.part6.rar

Uploadable.ch:
http://www.uploadable.ch/file/q8sGtmtrZubr/fglmt.T.Q.O.1080p.V.B.T.P.part1.rar
http://www.uploadable.ch/file/Wh9wVttXkA8p/fglmt.T.Q.O.1080p.V.B.T.P.part2.rar
http://www.uploadable.ch/file/wSqJEgjBDNmx/fglmt.T.Q.O.1080p.V.B.T.P.part3.rar
http://www.uploadable.ch/file/hqkgGFgnS3Rm/fglmt.T.Q.O.1080p.V.B.T.P.part4.rar
http://www.uploadable.ch/file/Sutn8xVrG453/fglmt.T.Q.O.1080p.V.B.T.P.part5.rar
http://www.uploadable.ch/file/8crcrpJm54y4/fglmt.T.Q.O.1080p.V.B.T.P.part6.rar

Links are Interchangeable - No Password - Single Extraction
Direct Download

Tags: Quayle, Organic, Backing, Package

Tom Quayle - Organic 1080p Video Backing Track Package Download via Hotfile Rapidshare Fileserve Megaupload & FileSonic, Tom Quayle - Organic 1080p Video Backing Track Package free torrent downloads included crack, serial, keygen.Tom Quayle - Organic 1080p Video Backing Track Package Fast Download via Rapidshare Hotfile Fileserve Filesonic Megaupload, Tom Quayle - Organic 1080p Video Backing Track Package Torrents and Emule Download or anything related.
Leave a Comment
Your Name:
E-Mail:
Add Comments:

Enter Code: