Jamtrackcentral - Gianluca Ferro

Download Now

Jamtrackcentral - Gianluca Ferro

Jamtrackcentral - Gianluca Ferro
WEBRip | English | MP4 + MP3 jam tracks + PDF tabs | 1280 x 720 | AVC ~2426 Kbps | 25 fps
AAC | 318 Kbps | 44.1 KHz | 2 channels | 2h 32min | 1.41 GB
Genre: eLearning Video / Guitar lesson

"In the early 2000s Gianluca takes part to several progressive-metal projects and joins the bands Doomsword and Time Machine. With Time Machine Gianluca perfoms twice at Gods of Metal sharing the stage with heavy metal giants such as Iron Maiden, Slayer, Slipknot, Testament,Halford, Manowar, Symphony X. The stand out collaboration with Andre Matos (Angra, Shaman), Kiko Loureiro and Rafael Bittencourt (Angra), and Scott McGill (Michael Manring, Vic Stevens) during live shows in Italy in 2002 (Gods Of metal 2002) were important steps that marked his professional career."

Content:
Metal Fusion Series 1
Metal Fusion Series 2
20 Metal Fusion Licks
Parallels


also You can look my other last:

General
Complete name : mf2_fieldoforion_vid.mp4
Format
: MPEG-4
Format profile : Base Media / Version 2
Codec ID
: mp42
File size
: 52.4 MiB
Duration
: 2mn 39s
Overall bit rate mode : Variable
Overall bit rate : 2 749 Kbps
Encoded date : UTC 2013-08-01 14:36:05
Tagged date
: UTC 2013-08-01 14:36:06
©TIM
: 00:00:00:00
©TSC
: 25
©TSZ
: 1

Video
ID : 1
Format
: AVC
Format/Info
: Advanced Video Codec
Format profile : [email protected]
Format settings, CABAC : Yes
Format settings, ReFrames : 3 frames
Codec ID
: avc1
Codec ID/Info : Advanced Video Coding
Duration
: 2mn 39s
Bit rate
: 2 426 Kbps
Width
: 1 280 pixels
Height
: 720 pixels
Display aspect ratio : 16:9
Frame rate mode : Constant
Frame rate
: 25.000 fps
Standard
: PAL
Color space
: YUV
Chroma subsampling

: 4:2:0
Bit depth
: 8 bits
Scan type
: Progressive
Bits/(Pixel*Frame)

: 0.105
Stream size
: 46.2 MiB (88%)
Language
: English
Encoded date : UTC 2013-08-01 14:36:05
Tagged date
: UTC 2013-08-01 14:36:05

Audio
ID : 2
Format
: AAC
Format/Info
: Advanced Audio Codec
Format profile : LC
Codec ID
: 40
Duration
: 2mn 39s
Source duration : 2mn 39s
Bit rate mode : Variable
Bit rate
: 318 Kbps
Maximum bit rate : 421 Kbps
Channel(s)
: 2 channels
Channel positions: Front: L R
Sampling rate : 44.1 KHz
Compression mode : Lossy
Stream size
: 6.05 MiB (12%)
Source stream size

: 6.05 MiB
Language
: English
Encoded date : UTC 2013-08-01 14:36:05
Tagged date
: UTC 2013-08-01 14:36:05

Screenshots

Jamtrackcentral - Gianluca Ferro

Jamtrackcentral - Gianluca Ferro

Jamtrackcentral - Gianluca Ferro



DOWNLOAD LINKS
Buy Premium From My Links To Get Resumable Support & Max Speed & To Support Me


Links are Interchangeable - No Password - Single Extraction
Direct Download

Tags: Jamtrackcentral, Gianluca

Jamtrackcentral - Gianluca Ferro Download via Hotfile Rapidshare Fileserve Megaupload & FileSonic, Jamtrackcentral - Gianluca Ferro free torrent downloads included crack, serial, keygen.Jamtrackcentral - Gianluca Ferro Fast Download via Rapidshare Hotfile Fileserve Filesonic Megaupload, Jamtrackcentral - Gianluca Ferro Torrents and Emule Download or anything related.
Leave a Comment
Your Name:
E-Mail:
Add Comments:

Enter Code: