Lectures - Astrophysics in Antarctica

Download Now

Lectures - Astrophysics in Antarctica

Astrophysics in Antarctica
professor Dave Z. Besson (Department of Physics and Astronomy, University of Kansas, 2015)

English | MP4 | 1920 x 1080 | AVC ~2551 kbps | 25 fps
AC-3 | 192 Kbps | 44.1 KHz | 2 channels | 06:27:37 | 6.79 GB
Genre: eLearning Video / Science, Astronomy, Theoretical Physics

Five lectures from Professor Dave Besson
Lecture notes
Lecture 1 (20.04.2015): part 1, part 2.
Lecture 2 (21.04.2015): part 1, part 2, part 3.
Lecture 3 (22.04.2015): part 1, part 2, part 3, part 4.
Lecture 4 (23.04.2015): part 1, part 2, part 3.
Lecture 5 (24.04.2015): part 1, part 2.

General
Complete name : Astrophysics_in_Antarctica_David_Besson_Lecture02.mp4
Format : MPEG-4
Format profile : Base Media
Codec ID : isom
File size : 1.19 GiB
Duration : 1h 2mn
Overall bit rate : 2 748 Kbps
Movie name : Astrophysics in Antarctica David Besson Lecture N 02
Writing application : Lavf56.4.101
Comment : NSU 2015

Video
ID : 1
Format : AVC
Format/Info : Advanced Video Codec
Format profile : High 4:4:4 [email protected]
Format settings, CABAC : Yes
Format settings, ReFrames : 4 frames
Codec ID : avc1
Codec ID/Info : Advanced Video Coding
Duration : 1h 2mn
Bit rate : 2 551 Kbps
Width : 1 920 pixels
Height : 1 080 pixels
Display aspect ratio : 16:9
Frame rate mode : Constant
Frame rate : 25.000 fps
Color space : YUV
Chroma subsampling : 4:4:4
Bit depth : 8 bits
Scan type : Progressive
Bits/(Pixel*Frame) : 0.049
Stream size : 1.11 GiB (93%)
Writing library : x264 core 142 r50 dd79a61
Encoding settings : cabac=1 / ref=3 / deblock=1:0:0 / analyse=0x3:0x113 / me=hex / subme=7 / psy=1 / psy_rd=1.00:0.00 / mixed_ref=1 / me_range=16 / chroma_me=1 / trellis=1 / 8x8dct=1 / cqm=0 / deadzone=21,11 / fast_pskip=1 / chroma_qp_offset=4 / threads=12 / lookahead_threads=2 / sliced_threads=0 / nr=0 / decimate=1 / interlaced=0 / bluray_compat=0 / constrained_intra=0 / bframes=3 / b_pyramid=2 / b_adapt=1 / b_bias=0 / direct=1 / weightb=1 / open_gop=0 / weightp=2 / keyint=250 / keyint_min=25 / scenecut=40 / intra_refresh=0 / rc_lookahead=40 / rc=crf / mbtree=1 / crf=23.0 / qcomp=0.60 / qpmin=0 / qpmax=69 / qpstep=4 / ip_ratio=1.40 / aq=1:1.00

Audio
ID : 2
Format : AC-3
Format/Info : Audio Coding 3
Mode extension : CM (complete main)
Codec ID : ac-3
Duration : 1h 2mn
Bit rate mode : Constant
Bit rate : 192 Kbps
Channel(s) : 2 channels
Channel positions : Front: L R
Sampling rate : 44.1 KHz
Bit depth : 16 bits
Compression mode : Lossy
Stream size : 85.2 MiB (7%)

Screenshots

Lectures - Astrophysics in Antarctica

Lectures - Astrophysics in Antarctica

Lectures - Astrophysics in Antarctica

Lectures - Astrophysics in Antarctica

Lectures - Astrophysics in Antarctica


Buy Premium Account To Get Resumable Support & Max Speed

DOWNLOAD LINK

Links are Interchangeable - No Password - Single Extraction
Direct Download

Tags: Lectures, Astrophysics, Antarctica

Lectures - Astrophysics in Antarctica Download via Hotfile Rapidshare Fileserve Megaupload & FileSonic, Lectures - Astrophysics in Antarctica free torrent downloads included crack, serial, keygen.Lectures - Astrophysics in Antarctica Fast Download via Rapidshare Hotfile Fileserve Filesonic Megaupload, Lectures - Astrophysics in Antarctica Torrents and Emule Download or anything related.
Leave a Comment
Your Name:
E-Mail:
Add Comments:

Enter Code: