Fly Like an Eagle with Rudy Mettia (2015)

Download Now

Fly Like an Eagle with Rudy Mettia (2015)

Fly Like an Eagle with Rudy Mettia
WEBRip | English | MP4 | 1280 x 720 | AVC ~1818 Kbps | 23.976 fps
AAC | 160 kbps | 48.0 KHz | 2 channel | 1 hour | 860 MB
Genre: Video Training / Yoga, Relaxation, Meditation

"A hip opening, glute strengthening, binding practice that will challenge your balance and increase your leg strength."

RUDY METTIA
Rudy often describes himself as "obsessed" with yoga and it is clearly evident in his teaching. Utilizing his experiences both on and off the mat, he inspires students to challenge their perceived boundaries while respecting their limitations. As he guides students within the class, he carefully breaks down each movement, finding myopic muscle and energetic actions to achieve the most of each position. Always teaching from experience, whether cautioning about potential injuries, recommending the perfect modification, or reminding a student to stay calm, focused, and within the moment, Rudy uses his wit and charisma to motivate his students. His teaching style helps beginners understand the asana and can revive even the longest yogi's practice, breathing in new life with a deeper physical and philosophical understanding. Rudy's intelligent sequencing and unique transitions create an ever-changing experience through the most basic of postures. Each practice with Rudy is an adventure but the result is always the same, elation from meeting a challenge head on that helps create a strong and resilient physique and mind. Armed with a huge heart, wicked sense of humor, and fierce belief in the practice, Rudy's enthusiasm for yoga shines through in every class helping each of his students to become a yoga warrior themselves. In just ten brief years, and yet after a long decade of journey and self discovery, Rudy Mettia has ascended from teaching yoga in an abandoned back room of a church nestled at the foot of the Hollywood hills, to claim his place among the top tier of yoga teachers in the hyper competitive mecca of the American yoga scene, Santa Monica, California, thereby the country.

also you can find more:

General
Complete name : Rudy Mettia Yoga - Fly Like an Eagle 60 min.mp4
Format
: MPEG-4
Format profile : Base Media / Version 2
Codec ID
: mp42
File size
: 860 MiB
Duration
: 1h 0mn
Overall bit rate mode : Variable
Overall bit rate : 1 985 Kbps
Encoded date : UTC 2036-02-06 06:28:16
Tagged date
: UTC 2036-02-06 06:28:16
Writing application

: HandBrake 0.10.2 2015060900

Video
ID : 1
Format
: AVC
Format/Info
: Advanced Video Codec
Format profile : [email protected]
Format settings, CABAC : Yes
Format settings, ReFrames : 4 frames
Codec ID
: avc1
Codec ID/Info : Advanced Video Coding
Duration
: 1h 0mn
Bit rate
: 1 818 Kbps
Width
: 1 280 pixels
Height
: 720 pixels
Display aspect ratio : 16:9
Frame rate mode : Variable
Frame rate
: 23.976 fps
Minimum frame rate

: 23.974 fps
Maximum frame rate

: 23.981 fps
Color space
: YUV
Chroma subsampling

: 4:2:0
Bit depth
: 8 bits
Scan type
: Progressive
Bits/(Pixel*Frame)

: 0.082
Stream size
: 787 MiB (92%)
Writing library : x264 core 142 r2479 dd79a61
Encoding settings: cabac=1 / ref=1 / deblock=1:0:0 / analyse=0x1:0x111 / me=hex / subme=2 / psy=1 / psy_rd=1.00:0.00 / mixed_ref=0 / me_range=16 / chroma_me=1 / trellis=0 / 8x8dct=0 / cqm=0 / deadzone=21,11 / fast_pskip=1 / chroma_qp_offset=0 / threads=12 / lookahead_threads=4 / sliced_threads=0 / nr=0 / decimate=1 / interlaced=0 / bluray_compat=0 / constrained_intra=0 / bframes=3 / b_pyramid=2 / b_adapt=1 / b_bias=0 / direct=1 / weightb=1 / open_gop=0 / weightp=1 / keyint=240 / keyint_min=24 / scenecut=40 / intra_refresh=0 / rc_lookahead=10 / rc=2pass / mbtree=1 / bitrate=1818 / ratetol=1.0 / qcomp=0.60 / qpmin=0 / qpmax=69 / qpstep=4 / cplxblur=20.0 / qblur=0.5 / vbv_maxrate=20000 / vbv_bufsize=25000 / nal_hrd=none / filler=0 / ip_ratio=1.40 / aq=1:1.00
Encoded date : UTC 2036-02-06 06:28:16
Tagged date
: UTC 2036-02-06 06:28:16
Color primaries : BT.709-5, BT.1361, IEC 61966-2-4, SMPTE RP177
Transfer characteristics : BT.709-5, BT.1361
Matrix coefficients

: BT.709-5, BT.1361, IEC 61966-2-4 709, SMPTE RP177

Audio
ID : 2
Format
: AAC
Format/Info
: Advanced Audio Codec
Format profile : LC
Codec ID
: 40
Duration
: 1h 0mn
Bit rate mode : Variable
Bit rate
: 160 Kbps
Channel(s)
: 2 channels
Channel positions: Front: L R
Sampling rate : 48.0 KHz
Compression mode : Lossy
Stream size
: 69.4 MiB (8%)
Title
: Stereo
Encoded date : UTC 2036-02-06 06:28:16
Tagged date
: UTC 2036-02-06 06:28:17

Screenshots

Fly Like an Eagle with Rudy Mettia (2015)

Fly Like an Eagle with Rudy Mettia (2015)

Fly Like an Eagle with Rudy Mettia (2015)



DOWNLOAD LINKS
Buy Premium From My Links To Get Resumable Support & Max Speed & To Support Me


Links are Interchangeable - No Password - Single Extraction
Direct Download

Tags: Mettia

Fly Like an Eagle with Rudy Mettia (2015) Download via Hotfile Rapidshare Fileserve Megaupload & FileSonic, Fly Like an Eagle with Rudy Mettia (2015) free torrent downloads included crack, serial, keygen.Fly Like an Eagle with Rudy Mettia (2015) Fast Download via Rapidshare Hotfile Fileserve Filesonic Megaupload, Fly Like an Eagle with Rudy Mettia (2015) Torrents and Emule Download or anything related.
Leave a Comment
Your Name:
E-Mail:
Add Comments:

Enter Code: