Guitar World - Jimi Hendrix Playing Secrets DVD (2015)

Download Now

Guitar World - Jimi Hendrix Playing Secrets DVD (2015)

Guitar World - Jimi Hendrix Playing Secrets DVD
DVDRip | English | MP4 | 856 x 480 | MPEG-4 ~1508 Kbps | 23.976 fps
AAC | 125 Kbps | 44.1 KHz | 2 channels | 00:59:36 | 712 MB
Genre: eLearning Video / Guitar lesson

"With 60 minutes of instruction, Jimi Hendrix Playing Secrets will help you learn all of Jimi Hendrix's essential rhythm and lead guitar techniques. This DVD includes his go-to soloing patterns, extended pentatonic and blues-scale positions, signature phrasing and articulations, string bending, vibrato and whammy bar usage, strummed octaves, thumb fretting and chord embellishments, plus essential gear and how to recreate Jimi's tone!"

Learn:

* Essential Scales and Licks - E Minor Pentatonic and E Blues
* Moving Through E Minor Pentatonic and E Blues-scale Positions
* Rhythmic Syncopations and Permutations
* Organ-style pedal-point licks
* Strummed Octaves and Playing Up and Down the Neck
* Two-note Harmonies and Whammy Bar Usage
* ...and much, much more! Get the essentials of Hendrix today!

Your instructor: Longtime Guitar World Associate Editor Andy Aledort presents and demonstrates the type of guitar and amplifier Jimi used, as well as an array of effects pedals that are very similar to those the legendary guitarist employed to create his signature tones and wailing, psychedelic leads.

also You can look my other last:

General
Complete name : 01 - Introduction - Essential Gear & Tuning.mp4
Format
: MPEG-4
Format profile : Base Media
Codec ID
: isom
File size
: 61.9 MiB
Duration
: 5mn 17s
Overall bit rate mode : Variable
Overall bit rate : 1 634 Kbps
Encoded date : UTC 2015-10-27 14:54:52
Tagged date
: UTC 2015-10-27 14:54:52
Writing application

: FormatFactory :

Video
ID : 1
Format
: MPEG-4 Visual
Format profile : [email protected]
Format settings, BVOP : No
Format settings, QPel : No
Format settings, GMC : No warppoints
Format settings, Matrix : Default (H.263)
Codec ID
: 20
Duration
: 5mn 17s
Bit rate mode : Variable
Bit rate
: 1 508 Kbps
Maximum bit rate : 4 222 Kbps
Width
: 856 pixels
Height
: 480 pixels
Display aspect ratio : 16:9
Frame rate mode : Constant
Frame rate
: 23.976 fps
Color space
: YUV
Chroma subsampling

: 4:2:0
Bit depth
: 8 bits
Scan type
: Progressive
Compression mode : Lossy
Bits/(Pixel*Frame)

: 0.153
Stream size
: 57.0 MiB (92%)
Writing library : Lavc53.8.0
Encoded date : UTC 2015-10-27 14:54:52
Tagged date
: UTC 2015-10-27 14:54:53

Audio
ID : 2
Format
: AAC
Format/Info
: Advanced Audio Codec
Format profile : LC
Codec ID
: 40
Duration
: 5mn 17s
Bit rate mode : Variable
Bit rate
: 125 Kbps
Maximum bit rate : 182 Kbps
Channel(s)
: 2 channels
Channel positions: Front: L R
Sampling rate : 44.1 KHz
Compression mode : Lossy
Stream size
: 4.74 MiB (8%)
Encoded date : UTC 2015-10-27 14:54:53
Tagged date
: UTC 2015-10-27 14:54:53

Screenshots

Guitar World - Jimi Hendrix Playing Secrets DVD (2015)

Guitar World - Jimi Hendrix Playing Secrets DVD (2015)

Guitar World - Jimi Hendrix Playing Secrets DVD (2015)



DOWNLOAD LINKS
Buy Premium From My Links To Get Resumable Support & Max Speed & To Support Me

Rapidgator.net:
http://rapidgator.net/file/75c013af57cff964f4544a56f474692f/sn40t.G.W.J.H.P.S.DVD.2015.part1.rar.html
http://rapidgator.net/file/6c8f3442594a57616f0e4bd0a4d1782d/sn40t.G.W.J.H.P.S.DVD.2015.part2.rar.html
http://rapidgator.net/file/94927d754e2c3ff0648227db8068992d/sn40t.G.W.J.H.P.S.DVD.2015.part3.rar.html
http://rapidgator.net/file/64f7588ead71c06be614677a961b2f31/sn40t.G.W.J.H.P.S.DVD.2015.part4.rar.html
http://rapidgator.net/file/875bcf3ccaaf596c725bd8fbfcba4ddb/sn40t.G.W.J.H.P.S.DVD.2015.part5.rar.html
http://rapidgator.net/file/c617dae309f53ebc112c71e44e1a8201/sn40t.G.W.J.H.P.S.DVD.2015.part6.rar.html
http://rapidgator.net/file/8cccbab8c61d8c14e0bec318fc60c46c/sn40t.G.W.J.H.P.S.DVD.2015.part7.rar.html
http://rapidgator.net/file/d848f229117fe65a40778928df814411/sn40t.G.W.J.H.P.S.DVD.2015.part8.rar.html

Uploaded.net:
http://uploaded.net/file/j76zba5r/sn40t.G.W.J.H.P.S.DVD.2015.part1.rar
http://uploaded.net/file/fbazxcr1/sn40t.G.W.J.H.P.S.DVD.2015.part2.rar
http://uploaded.net/file/s1h460tl/sn40t.G.W.J.H.P.S.DVD.2015.part3.rar
http://uploaded.net/file/u0p29510/sn40t.G.W.J.H.P.S.DVD.2015.part4.rar
http://uploaded.net/file/lvh2ilst/sn40t.G.W.J.H.P.S.DVD.2015.part5.rar
http://uploaded.net/file/ym116buf/sn40t.G.W.J.H.P.S.DVD.2015.part6.rar
http://uploaded.net/file/7abj9hse/sn40t.G.W.J.H.P.S.DVD.2015.part7.rar
http://uploaded.net/file/fth38txm/sn40t.G.W.J.H.P.S.DVD.2015.part8.rar

OBoom.com:
https://www.oboom.com/MESW1ZII/sn40t.G.W.J.H.P.S.DVD.2015.part1.rar
https://www.oboom.com/TRFK8JMD/sn40t.G.W.J.H.P.S.DVD.2015.part2.rar
https://www.oboom.com/NIJYQVKR/sn40t.G.W.J.H.P.S.DVD.2015.part3.rar
https://www.oboom.com/APVJQ8JD/sn40t.G.W.J.H.P.S.DVD.2015.part4.rar
https://www.oboom.com/EBDU8MLX/sn40t.G.W.J.H.P.S.DVD.2015.part5.rar
https://www.oboom.com/9L71NTJN/sn40t.G.W.J.H.P.S.DVD.2015.part6.rar
https://www.oboom.com/90MTGPA0/sn40t.G.W.J.H.P.S.DVD.2015.part7.rar
https://www.oboom.com/STDVA2A9/sn40t.G.W.J.H.P.S.DVD.2015.part8.rar

Links are Interchangeable - No Password - Single Extraction
Direct Download

Tags: Guitar, Hendrix, Playing, Secrets

Guitar World - Jimi Hendrix Playing Secrets DVD (2015) Download via Hotfile Rapidshare Fileserve Megaupload & FileSonic, Guitar World - Jimi Hendrix Playing Secrets DVD (2015) free torrent downloads included crack, serial, keygen.Guitar World - Jimi Hendrix Playing Secrets DVD (2015) Fast Download via Rapidshare Hotfile Fileserve Filesonic Megaupload, Guitar World - Jimi Hendrix Playing Secrets DVD (2015) Torrents and Emule Download or anything related.
Leave a Comment
Your Name:
E-Mail:
Add Comments:

Enter Code: