Dance Off the Inches with Camilla Dallerup

Download Now

Dance Off the Inches with Camilla Dallerup

Dance Off the Inches with Camilla Dallerup
DVDRip | English | MP4 | 720 x 574 | AVC ~1847 kbps | 25 fps
AAC | 160 Kbps | 48.0 KHz | 2 channels | 00:58:37 | 844 MB
Genre: eLearning Video / Dance, Fitness

"Dance off the Inches is a professionally programmed workout presented by Strictly Come Dancings Camilla Dallerup. Camilla has developed and choreographed four dance-based workouts exclusively for you, so you can have fun dancing and lose inches at the same time. This dance workout brings the fun back to fitness. It takes you through four levels of dance routines with a steadily increasing tempo. Set to hit music so that you can burn calories as well as learn some new steps for the dance floor. Workout: - Warm up, The mambo and cha cha workout, The jive workout, The funky workout, The calorie burner, Cool down"

also You can look my other last:

General
Complete name : Dance Off the Inches with Camilla Dallerup.mp4
Format
: MPEG-4
Format profile : Base Media / Version 2
Codec ID
: mp42
File size
: 844 MiB
Duration
: 58mn 37s
Overall bit rate mode : Variable
Overall bit rate : 2 013 Kbps
Encoded date : UTC 2036-02-06 06:28:16
Tagged date
: UTC 2036-02-06 06:28:16
Writing application

: HandBrake 0.10.2 2015060900

Video
ID : 1
Format
: AVC
Format/Info
: Advanced Video Codec
Format profile : [email protected]
Format settings, CABAC : Yes
Format settings, ReFrames : 4 frames
Codec ID
: avc1
Codec ID/Info : Advanced Video Coding
Duration
: 58mn 37s
Bit rate
: 1 847 Kbps
Width
: 720 pixels
Height
: 574 pixels
Display aspect ratio : 16:9
Frame rate mode : Variable
Frame rate
: 25.000 fps
Minimum frame rate

: 20.671 fps
Maximum frame rate

: 25.000 fps
Color space
: YUV
Chroma subsampling

: 4:2:0
Bit depth
: 8 bits
Scan type
: Progressive
Bits/(Pixel*Frame)

: 0.179
Stream size
: 774 MiB (92%)
Writing library : x264 core 142 r2479 dd79a61
Encoding settings: cabac=1 / ref=1 / deblock=1:0:0 / analyse=0x1:0x111 / me=hex / subme=2 / psy=1 / psy_rd=1.00:0.00 / mixed_ref=0 / me_range=16 / chroma_me=1 / trellis=0 / 8x8dct=0 / cqm=0 / deadzone=21,11 / fast_pskip=1 / chroma_qp_offset=0 / threads=12 / lookahead_threads=4 / sliced_threads=0 / nr=0 / decimate=1 / interlaced=0 / bluray_compat=0 / constrained_intra=0 / bframes=3 / b_pyramid=2 / b_adapt=1 / b_bias=0 / direct=1 / weightb=1 / open_gop=0 / weightp=1 / keyint=250 / keyint_min=25 / scenecut=40 / intra_refresh=0 / rc_lookahead=10 / rc=2pass / mbtree=1 / bitrate=1847 / ratetol=1.0 / qcomp=0.60 / qpmin=0 / qpmax=69 / qpstep=4 / cplxblur=20.0 / qblur=0.5 / vbv_maxrate=20000 / vbv_bufsize=25000 / nal_hrd=none / filler=0 / ip_ratio=1.40 / aq=1:1.00
Encoded date : UTC 2036-02-06 06:28:16
Tagged date
: UTC 2036-02-06 06:28:16
Color primaries : BT.470-6 System B, BT.470-6 System G, BT.601-6 625, BT.1358 625, BT.1700 625 PAL, BT.1700 625 SECAM
Transfer characteristics : BT.709-5, BT.1361
Matrix coefficients

: BT.601-6 525, BT.1358 525, BT.1700 NTSC, SMPTE 170M

Audio
ID : 2
Format
: AAC
Format/Info
: Advanced Audio Codec
Format profile : LC
Codec ID
: 40
Duration
: 58mn 36s
Bit rate mode : Variable
Bit rate
: 160 Kbps
Channel(s)
: 2 channels
Channel positions: Front: L R
Sampling rate : 48.0 KHz
Compression mode : Lossy
Stream size
: 67.2 MiB (8%)
Title
: Stereo
Language
: English
Encoded date : UTC 2036-02-06 06:28:16
Tagged date
: UTC 2036-02-06 06:28:16

Text
ID : 3
Format
: Apple text
Codec ID
: text
Duration
: 58mn 35s
Bit rate mode : Constant
Bit rate
: 0
Stream size
: 138 Bytes (0%)
Language
: English
Encoded date : UTC 2036-02-06 06:28:16
Tagged date
: UTC 2036-02-06 06:28:16

Screenshots

Dance Off the Inches with Camilla Dallerup

Dance Off the Inches with Camilla Dallerup

Dance Off the Inches with Camilla Dallerup

For more Exclusive material, Visit my

Dance Off the Inches with Camilla Dallerup


DOWNLOAD:
Buy Premium To Support Me & Get Resumable Support & Max Speed


Links are Interchangeable - No Password
Direct Download

Tags: Inches, Camilla, Dallerup

Dance Off the Inches with Camilla Dallerup Download via Hotfile Rapidshare Fileserve Megaupload & FileSonic, Dance Off the Inches with Camilla Dallerup free torrent downloads included crack, serial, keygen.Dance Off the Inches with Camilla Dallerup Fast Download via Rapidshare Hotfile Fileserve Filesonic Megaupload, Dance Off the Inches with Camilla Dallerup Torrents and Emule Download or anything related.
Leave a Comment
Your Name:
E-Mail:
Add Comments:

Enter Code: