Charlie Hebdo: 3 Days That Shook Paris (24 Sep 2015) [PDTV (x264)]

Download Now

http://picload.org/image/pcpilrp/paris_images_1443002700.jpg

Charlie Hebdo: 3 Days That Shook Paris (24 Sep 2015) [PDTV (x264)]
English | Size: 494.66 MB (518,692,506 bytes)
Category: Documentary

The definitive story of January's attacks in Paris by Islamist militants against satirical magazine Charlie Hebdo, the police and a Jewish supermarket. The deadliest acts of terrorism in France for over 50 years, the attacks left 20 people dead, traumatised a nation, questioned the notion of freedom of expression and sent shockwaves through the world. With powerful testimonies from the police and military commanders leading the operation.
Charlie Hebdo: 3 Days That Shook Paris (24 Sep 2015) [PDTV (x264)]

General
Complete name : Charlie Hebdo - Three Days That Shook Paris (24 September 2015) [PDTV mp4].mp4
Format : MPEG-4
Format profile : Base Media / Version 2
Codec ID : mp42
File size : 495 MiB
Duration : 58mn 0s
Overall bit rate mode : Variable
Overall bit rate : 1 192 Kbps
Writing application : HandBrake 6548svn 2014112401

Video
ID : 1
Format : AVC
Format/Info : Advanced Video Codec
Format profile : [email protected]
Format settings, CABAC : Yes
Format settings, Reframes : 4 frames
Codec ID : avc1
Codec ID/Info : Advanced Video Coding
Duration : 58mn 0s
Bit rate : 1 100 Kbps
Width : 720 pixels
Height : 404 pixels
Display aspect ratio : 16:9
frame rate mode : Constant
frame rate : 25.000 fps
Color space : YUV
Chroma subsampling : 4:2:0
Bit depth : 8 bits
Scan type : Progressive
Bits/(Pixel*frame) : 0.151
Stream size : 452 MiB (91%)
Writing library : x264 core 142 r2479 dd79a61
Encoding settings : cabac=1 / ref=2 / deblock=1:0:0 / analyse=0x3:0x113 / me=hex / subme=4 / psy=1 / psy_rd=1.00:0.00 / mixed_ref=0 / me_range=16 / chroma_me=1 / trellis=1 / 8x8dct=1 / cqm=0 / deadzone=21,11 / fast_pskip=1 / chroma_qp_offset=0 / threads=3 / lookahead_threads=1 / sliced_threads=0 / nr=0 / decimate=1 / interlaced=0 / bluray_compat=0 / constrained_intra=0 / bframes=3 / b_pyramid=2 / b_adapt=1 / b_bias=0 / direct=1 / weightb=1 / open_gop=0 / weightp=1 / keyint=250 / keyint_min=25 / scenecut=40 / intra_refresh=0 / rc_lookahead=20 / rc=abr / mbtree=1 / bitrate=1100 / ratetol=1.0 / qcomp=0.60 / qpmin=0 / qpmax=69 / qpstep=4 / vbv_maxrate=17500 / vbv_bufsize=17500 / nal_hrd=none / filler=0 / ip_ratio=1.40 / aq=1:1.00
Color range : Limited
Color primaries : BT.601 PAL
Transfer characteristics : BT.709
Matrix coefficients : BT.601

Audio
ID : 2
Format : AAC
Format/Info : Advanced Audio Codec
Format profile : LC
Codec ID : 40
Duration : 58mn 0s
Bit rate mode : Variable
Bit rate : 96.0 Kbps
Channel(s) : 2 channels
Channel positions : Front: L R
Sampling rate : 48.0 KHz
Compression mode : Lossy
Stream size : 40.0 MiB (8%)
Title : Stereo / Stereo

Buy Long-term Premium Accounts To Support Me & Max Speed

DOWNLOAD:



If any links die or problem unrar, send request to http://goo.gl/aUHSZc
Direct Download

Tags: Charlie

Charlie Hebdo: 3 Days That Shook Paris (24 Sep 2015) [PDTV (x264)] Download via Hotfile Rapidshare Fileserve Megaupload & FileSonic, Charlie Hebdo: 3 Days That Shook Paris (24 Sep 2015) [PDTV (x264)] free torrent downloads included crack, serial, keygen.Charlie Hebdo: 3 Days That Shook Paris (24 Sep 2015) [PDTV (x264)] Fast Download via Rapidshare Hotfile Fileserve Filesonic Megaupload, Charlie Hebdo: 3 Days That Shook Paris (24 Sep 2015) [PDTV (x264)] Torrents and Emule Download or anything related.
Leave a Comment
Your Name:
E-Mail:
Add Comments:

Enter Code: