Jazz Metal Soloing Vol.1 with Christophe Godin (2015)

Download Now

Jazz Metal Soloing Vol.1 with Christophe Godin (2015)

Jazz Metal Soloing Vol.1 with Christophe Godin
WEBRip | English | MP4 + MP3 jam tracks + PDF tabs | 1280 x 720 | AVC ~3876 kbps | 25 fps
AAC 157 Kbps 48.0 KHz | 2 channels | ~20 minutes | 317 MB
Genre: eLearning Video / Guitar lesson

"Based on the 5 superb jam tracks that he has created for Jazz Metal Soloing Vol.1, then we were most definitely right. This series contains 5 superb heavier jam tracks with Christophe showing you just how you can improvise over them. He takes a lot of the melodic devices and harmonic approaches from a Jazz context and thrusts them full force into an all out metal context. The results are quite astounding! Few players can take on a fusion approach quite like Christophe can!"

Filmed live in the JTC studio he shows off an array of techniques, such as string skipping and trem work, that will not only help improve your playing but give you inspiration and fresh ideas for when it comes to your turn to take the spot light and jam out your own fantastic solo over the track. The tracks were also recorded by Christophe's band and the quality of the backing and jam tracks are immense!

As ever, we have included everything you need to practise and perfect the material in this package. There are video and audio tracks for you to watch/listen and study, accurately transcribed TAB/notation for you to analyse and master as well as backing tracks for you to practise every lick to, and jam out your own solos!

also You can look my other last:

General
Complete name : cgjm1_brutal_vid.mp4
Format
: MPEG-4
Format profile : Base Media / Version 2
Codec ID
: mp42
File size
: 50.8 MiB
Duration
: 1mn 45s
Overall bit rate mode : Variable
Overall bit rate : 4 038 Kbps
Encoded date : UTC 2012-07-23 14:07:13
Tagged date
: UTC 2012-07-23 14:42:27
©TIM
: 00:00:00:00
©TSC
: 25
©TSZ
: 1

Video
ID : 1
Format
: AVC
Format/Info
: Advanced Video Codec
Format profile : [email protected]
Format settings, CABAC : Yes
Format settings, ReFrames : 3 frames
Codec ID
: avc1
Codec ID/Info : Advanced Video Coding
Duration
: 1mn 45s
Source duration : 1mn 45s
Bit rate
: 3 876 Kbps
Width
: 1 280 pixels
Height
: 720 pixels
Display aspect ratio : 16:9
Frame rate mode : Constant
Frame rate
: 25.000 fps
Standard
: PAL
Color space
: YUV
Chroma subsampling

: 4:2:0
Bit depth
: 8 bits
Scan type
: Progressive
Bits/(Pixel*Frame)

: 0.168
Stream size
: 48.8 MiB (96%)
Source stream size

: 48.8 MiB
Language
: English
Encoded date : UTC 2012-07-23 14:07:13
Tagged date
: UTC 2012-07-23 14:07:13
Source_Duration_LastFrame : -40

Audio
ID : 2
Format
: AAC
Format/Info
: Advanced Audio Codec
Format profile : LC
Codec ID
: 40
Duration
: 1mn 45s
Source duration : 1mn 45s
Bit rate mode : Variable
Bit rate
: 157 Kbps
Maximum bit rate : 254 Kbps
Channel(s)
: 2 channels
Channel positions: Front: L R
Sampling rate : 48.0 KHz
Compression mode : Lossy
Stream size
: 1.98 MiB (4%)
Source stream size

: 1.98 MiB
Language
: English
Encoded date : UTC 2012-07-23 14:07:13
Tagged date
: UTC 2012-07-23 14:07:13

Screenshots

Jazz Metal Soloing Vol.1 with Christophe Godin (2015)

Jazz Metal Soloing Vol.1 with Christophe Godin (2015)

Jazz Metal Soloing Vol.1 with Christophe Godin (2015)



DOWNLOAD LINKS
Buy Premium From My Links To Get Resumable Support & Max Speed & To Support Me


Links are Interchangeable - No Password - Single Extraction
Direct Download

Tags: Soloing, Christophe

Jazz Metal Soloing Vol.1 with Christophe Godin (2015) Download via Hotfile Rapidshare Fileserve Megaupload & FileSonic, Jazz Metal Soloing Vol.1 with Christophe Godin (2015) free torrent downloads included crack, serial, keygen.Jazz Metal Soloing Vol.1 with Christophe Godin (2015) Fast Download via Rapidshare Hotfile Fileserve Filesonic Megaupload, Jazz Metal Soloing Vol.1 with Christophe Godin (2015) Torrents and Emule Download or anything related.
Leave a Comment
Your Name:
E-Mail:
Add Comments:

Enter Code: