American Genius S01E01+E02 (2015)

Download Now

American Genius S01E01+E02 (2015)

American Genius S01E01+E02 (2015)
HDTV | 1280x720 | MKV/x264 @ 2754 Kbps | 2x43mn | Audio: English AC3 384 kbps, 6 channels | Subs: None | 2x1.06 GB
Genre: Documentary

"American Genius" looks at those who mentally put the pedal to the metal," said David. These are stories of beautiful, hyper-creative mad minds. We may think we know them because our country, and the world, still reaps the benefits of their extraordinary thinking, but our goal is to go way behind IQ, and way beyond the known eccentricity.
More info

Season 1, Episode 01 - "Jobs vs Gates"
In the 1980s, Bill Gates and Steve Jobs break out in a heated battle to bring the personal computer to the masses.

Season 01, Episode 02 - "Wright Brothers vs. Curtiss"
The Wright Brothers build and fly the world's first airplane, but they keep it a secret, leaving an opening for motor designer, Glenn Curtiss, to swoop in and compete to be the first to fly in public.

Video
ID
: 1
Format : AVC
Format/Info

: Advanced Video Codec
Format profile : [email protected]
Format settings, CABAC : Yes
Format settings, ReFrames : 5 frames
Format settings, GOP : N=1
Codec ID : V_MPEG4/ISO/AVC
Duration : 43mn 56s
Bit rate : 2 754 Kbps
Width : 1 280 pixels
Height : 720 pixels
Display aspect ratio : 16:9
Frame rate

: 23.976 fps
Color space

: YUV
Chroma subsampling : 4:2:0
Bit depth: 8 bits
Scan type: Progressive
Bits/(Pixel*Frame) : 0.125
Stream size

: 865 MiB (86%)
Writing library : x264 core 146 r2538 121396c
Encoding settings : cabac=1 / ref=5 / deblock=1:0:0 / analyse=0x3:0x113 / me=umh / subme=8 / psy=1 / psy_rd=1.00:0.00 / mixed_ref=1 / me_range=16 / chroma_me=1 / trellis=1 / 8x8dct=1 / cqm=0 / deadzone=21,11 / fast_pskip=1 / chroma_qp_offset=-2 / threads=12 / lookahead_threads=2 / sliced_threads=0 / nr=0 / decimate=1 / interlaced=0 / bluray_compat=0 / constrained_intra=0 / bframes=3 / b_pyramid=2 / b_adapt=2 / b_bias=0 / direct=3 / weightb=1 / open_gop=0 / weightp=2 / keyint=250 / keyint_min=23 / scenecut=40 / intra_refresh=0 / rc_lookahead=50 / rc=crf / mbtree=1 / crf=20.0 / qcomp=0.60 / qpmin=0 / qpmax=69 / qpstep=4 / ip_ratio=1.40 / aq=1:1.00
Matrix coefficients : BT.709-5, BT.1361, IEC 61966-2-4 709, SMPTE RP177

Audio
ID
: 2
Format : AC-3
Format/Info

: Audio Coding 3
Mode extension : CM (complete main)
Codec ID : A_AC3
Duration : 43mn 56s
Bit rate mode : Constant
Bit rate : 384 Kbps
Channel(s)

: 6 channels
Channel positions : Front: L C R, Side: L R, LFE
Sampling rate : 48.0 KHz
Bit depth: 16 bits
Compression mode : Lossy
Stream size

: 121 MiB (12%)

American Genius S01E01+E02 (2015)


DOWNLOAD LINKS
Buy Premium From My Links To Get Resumable Support & Max Speed & To Support Me


Links are Interchangeable - No Password - Single Extraction
Direct Download

Tags: American, Genius

American Genius S01E01+E02 (2015) Download via Hotfile Rapidshare Fileserve Megaupload & FileSonic, American Genius S01E01+E02 (2015) free torrent downloads included crack, serial, keygen.American Genius S01E01+E02 (2015) Fast Download via Rapidshare Hotfile Fileserve Filesonic Megaupload, American Genius S01E01+E02 (2015) Torrents and Emule Download or anything related.
Leave a Comment
Your Name:
E-Mail:
Add Comments:

Enter Code: