National Geographic - Wild: T-Rex Autopsy (2015)

Download Now


National Geographic - Wild: T-Rex Autopsy (2015)
National Geographic - Wild: T-Rex Autopsy (2015)
HDTV | 1280x720 | .MKV/AVC @ 3163 Kbps | 1h 27mn | Audio: English AC3 384 kbps, 6 channels | Subs: None | 2.22 GiB
Genre: Documentary

"In a top secret location, a colossal specimen lies on an autopsy table. The creature has a heart 100 times larger than a human's, eyes the size of a grapefruit and serrated teeth up to 30cm long. Prepare to peel back the skin of one of nature's most extraordinary predators and accomplish the unimaginable: a full T. rex Autopsy. This once-in-a-lifetime experiment offers you an unprecedented opportunity to explore questions such as whether or not T. rex had feathers; how it fed with those tiny arms; whether it was primarily a hunter or scavenger; how it digested food; how old it lived to be; how it procreated; and whether it was warm-blooded like a mammal or cold-blooded like a reptile. Using cutting-edge special effects techniques and in collaboration with esteemed veterinary surgeons, anatomists and paleontologists, T. rex Autopsy illuminates the latest research and findings about Tyrannosaurus rex."

General
Unique ID
: 0 (0x0)
Complete name : national.geographic.wild.trex.autopsy.mkv
Format
: Matroska
Format version : Version 4 / Version 2
File size
: 2.22 GiB
Duration
: 1h 27mn
Overall bit rate : 3 619 Kbps

Video
ID : 1
Format
: AVC
Format/Info
: Advanced Video Codec
Format profile : [email protected]
Format settings, CABAC : Yes
Format settings, ReFrames : 5 frames
Codec ID
: V_MPEG4/ISO/AVC
Duration
: 1h 27mn
Bit rate
: 3 163 Kbps
Width
: 1 280 pixels
Height
: 720 pixels
Display aspect ratio : 16:9
Frame rate
: 25.000 fps
Color space
: YUV
Chroma subsampling

: 4:2:0
Bit depth
: 8 bits
Scan type
: Progressive
Bits/(Pixel*Frame)

: 0.137
Stream size
: 1.94 GiB (87%)
Writing library : x264 core 146 r2538 121396c
Encoding settings: cabac=1 / ref=5 / deblock=1:0:0 / analyse=0x3:0x113 / me=umh / subme=8 / psy=1 / psy_rd=1.00:0.00 / mixed_ref=1 / me_range=16 / chroma_me=1 / trellis=1 / 8x8dct=1 / cqm=0 / deadzone=21,11 / fast_pskip=1 / chroma_qp_offset=-2 / threads=12 / lookahead_threads=2 / sliced_threads=0 / nr=0 / decimate=1 / interlaced=0 / bluray_compat=0 / constrained_intra=0 / bframes=3 / b_pyramid=2 / b_adapt=2 / b_bias=0 / direct=3 / weightb=1 / open_gop=0 / weightp=2 / keyint=250 / keyint_min=25 / scenecut=40 / intra_refresh=0 / rc_lookahead=50 / rc=crf / mbtree=1 / crf=21.0 / qcomp=0.60 / qpmin=0 / qpmax=69 / qpstep=4 / ip_ratio=1.40 / aq=1:1.00
Default
: Yes
Forced
: No
Matrix coefficients

: BT.709-5, BT.1361, IEC 61966-2-4 709, SMPTE RP177

Audio
ID : 2
Format
: AC-3
Format/Info
: Audio Coding 3
Mode extension : CM (complete main)
Format settings, Endianness : Big
Codec ID
: A_AC3
Duration
: 1h 27mn
Bit rate mode : Constant
Bit rate
: 384 Kbps
Channel(s)
: 6 channels
Channel positions: Front: L C R, Side: L R, LFE
Sampling rate : 48.0 KHz
Bit depth
: 16 bits
Compression mode : Lossy
Stream size
: 241 MiB (11%)
Title
: English
Language
: English
Default
: Yes
Forced
: No

Screenshots:

National Geographic - Wild: T-Rex Autopsy (2015)

National Geographic - Wild: T-Rex Autopsy (2015)


DOWNLOAD LINKS:


No Password
Direct Download

Tags: National, Geographic, Autopsy

National Geographic - Wild: T-Rex Autopsy (2015) Download via Hotfile Rapidshare Fileserve Megaupload & FileSonic, National Geographic - Wild: T-Rex Autopsy (2015) free torrent downloads included crack, serial, keygen.National Geographic - Wild: T-Rex Autopsy (2015) Fast Download via Rapidshare Hotfile Fileserve Filesonic Megaupload, National Geographic - Wild: T-Rex Autopsy (2015) Torrents and Emule Download or anything related.
Leave a Comment
Your Name:
E-Mail:
Add Comments:

Enter Code: