NHK Great Nature - Unveiled Auroral Breakup - Dancing Lights in Canada's Extreme North (2012)

Download Now


NHK Great Nature - Unveiled Auroral Breakup - Dancing Lights in Canada's Extreme North (2012)
NHK Great Nature - Unveiled Auroral Breakup - Dancing Lights in Canada's Extreme North (2012)
HDTV | 1280x720 | .MP4/AVC @ 1854 Kbps | 28mn 59s | Audio: English AAC 112 kbps, 2 channels | Subs: None | 409 MiB
Genre: Documentary

"On a dogsled journey through the magnificient scenery of the far north of Canada, in the "auroral oval," we attempt to film an aurora outburst, when lights in seven colors explode across the sky."

General
Complete name : NHK.Great.Nature.2012.Unveiled.Auroral.Breakup.Canadas.Extreme.North.mp4
Format
: MPEG-4
Format profile : Base Media
Codec ID
: isom
File size
: 409 MiB
Duration
: 28mn 59s
Overall bit rate mode : Variable
Overall bit rate : 1 970 Kbps

Video
ID : 1
Format
: AVC
Format/Info
: Advanced Video Codec
Format profile : [email protected]
Format settings, CABAC : Yes
Format settings, ReFrames : 9 frames
Codec ID
: avc1
Codec ID/Info : Advanced Video Coding
Duration
: 28mn 59s
Bit rate
: 1 854 Kbps
Maximum bit rate : 7 099 Kbps
Width
: 1 280 pixels
Height
: 720 pixels
Display aspect ratio : 16:9
Frame rate mode : Constant
Frame rate
: 29.970 fps
Color space
: YUV
Chroma subsampling

: 4:2:0
Bit depth
: 8 bits
Scan type
: Progressive
Bits/(Pixel*Frame)

: 0.067
Stream size
: 385 MiB (94%)
Writing library : x264 core 146 r2538 121396c
Encoding settings: cabac=1 / ref=9 / deblock=1:-3:-3 / analyse=0x3:0x133 / me=umh / subme=10 / psy=1 / psy_rd=1.10:0.10 / mixed_ref=1 / me_range=24 / chroma_me=1 / trellis=2 / 8x8dct=1 / cqm=0 / deadzone=21,11 / fast_pskip=0 / chroma_qp_offset=-3 / threads=3 / lookahead_threads=1 / sliced_threads=0 / nr=0 / decimate=1 / interlaced=0 / bluray_compat=0 / constrained_intra=0 / bframes=9 / b_pyramid=2 / b_adapt=2 / b_bias=0 / direct=3 / weightb=1 / open_gop=0 / weightp=2 / keyint=360 / keyint_min=29 / scenecut=40 / intra_refresh=0 / rc_lookahead=60 / rc=crf / mbtree=1 / crf=21.0 / qcomp=0.60 / qpmin=0 / qpmax=69 / qpstep=4 / vbv_maxrate=62500 / vbv_bufsize=78125 / crf_max=0.0 / nal_hrd=none / filler=0 / ip_ratio=1.40 / aq=1:1.00
Encoded date : UTC 2015-06-20 19:58:38
Tagged date
: UTC 2015-06-20 20:00:33

Audio
ID : 2
Format
: AAC
Format/Info
: Advanced Audio Codec
Format profile : LC
Codec ID
: 40
Duration
: 28mn 59s
Bit rate mode : Variable
Bit rate
: 112 Kbps
Maximum bit rate : 124 Kbps
Channel(s)
: 2 channels
Channel positions: Front: L R
Sampling rate : 48.0 KHz
Compression mode : Lossy
Stream size
: 23.1 MiB (6%)
Language
: English
Encoded date : UTC 2015-06-20 20:00:31
Tagged date
: UTC 2015-06-20 20:00:33

Screenshots:

NHK Great Nature - Unveiled Auroral Breakup - Dancing Lights in Canada's Extreme North (2012)

NHK Great Nature - Unveiled Auroral Breakup - Dancing Lights in Canada's Extreme North (2012)

NHK Great Nature - Unveiled Auroral Breakup - Dancing Lights in Canada's Extreme North (2012)

NHK Great Nature - Unveiled Auroral Breakup - Dancing Lights in Canada's Extreme North (2012)


DOWNLOAD LINKS
Buy Premium From My Links To Get Resumable Support & Max Speed & To Support Me


Links are Interchangeable - No Password - Single Extraction
Direct Download

Tags: Nature, Unveiled, Auroral, Breakup, Dancing, Lights, Canada, Extreme

NHK Great Nature - Unveiled Auroral Breakup - Dancing Lights in Canada's Extreme North (2012) Download via Hotfile Rapidshare Fileserve Megaupload & FileSonic, NHK Great Nature - Unveiled Auroral Breakup - Dancing Lights in Canada's Extreme North (2012) free torrent downloads included crack, serial, keygen.NHK Great Nature - Unveiled Auroral Breakup - Dancing Lights in Canada's Extreme North (2012) Fast Download via Rapidshare Hotfile Fileserve Filesonic Megaupload, NHK Great Nature - Unveiled Auroral Breakup - Dancing Lights in Canada's Extreme North (2012) Torrents and Emule Download or anything related.
Leave a Comment
Your Name:
E-Mail:
Add Comments:

Enter Code: