BSkyB - Ant-Man: Behind the Scenes (2015)

Download Now

BSkyB - Ant-Man: Behind the Scenes (2015)

BSkyB - Ant-Man: Behind the Scenes (2015)
HDTV | English | MP4 | 1280x720 | AVC 3000 Kbps 25.000 fps | AAC 160 Kbps 48.0 khz | 20mn 4s | 449 MB
Genre: Documentary

"No challenge is too big for Sky Movies and so we sent Alex Zane to the set of Ant-Man to find some juicy secrets about Marvel's miniature hero. He chats with star Paul Rudd and director Peyton Reed - and gets to try on the superhero helmet..."

General
Complete name : Ant.Man.Behind.The.Scenes.Sky.Movies.Special.mp4
Format
: MPEG-4
Format profile : Base Media / Version 2
Codec ID
: mp42
File size
: 449 MiB
Duration
: 20mn 4s
Overall bit rate mode : Variable
Overall bit rate : 3 129 Kbps
Writing application

: HandBrake 0.10.1 2015030800

Video
ID : 1
Format
: AVC
Format/Info
: Advanced Video Codec
Format profile : [email protected]
Format settings, CABAC : Yes
Format settings, ReFrames : 4 frames
Codec ID
: avc1
Codec ID/Info : Advanced Video Coding
Duration
: 20mn 4s
Bit rate
: 3 000 Kbps
Width
: 1 280 pixels
Height
: 720 pixels
Display aspect ratio : 16:9
Frame rate mode : Constant
Frame rate
: 25.000 fps
Color space
: YUV
Chroma subsampling

: 4:2:0
Bit depth
: 8 bits
Scan type
: Progressive
Bits/(Pixel*Frame)

: 0.130
Stream size
: 425 MiB (95%)
Writing library : x264 core 142 r2479 dd79a61
Encoding settings: cabac=1 / ref=2 / deblock=1:0:0 / analyse=0x3:0x113 / me=hex / subme=6 / psy=1 / psy_rd=1.00:0.00 / mixed_ref=1 / me_range=16 / chroma_me=1 / trellis=1 / 8x8dct=1 / cqm=0 / deadzone=21,11 / fast_pskip=1 / chroma_qp_offset=-2 / threads=3 / lookahead_threads=1 / sliced_threads=0 / nr=0 / decimate=1 / interlaced=0 / bluray_compat=0 / constrained_intra=0 / bframes=3 / b_pyramid=2 / b_adapt=1 / b_bias=0 / direct=1 / weightb=1 / open_gop=0 / weightp=1 / keyint=250 / keyint_min=25 / scenecut=40 / intra_refresh=0 / rc_lookahead=30 / rc=abr / mbtree=1 / bitrate=3000 / ratetol=1.0 / qcomp=0.60 / qpmin=0 / qpmax=69 / qpstep=4 / vbv_maxrate=62500 / vbv_bufsize=78125 / nal_hrd=none / filler=0 / ip_ratio=1.40 / aq=1:1.00
Color primaries : BT.709
Transfer characteristics : BT.709
Matrix coefficients

: BT.709

Audio
ID : 2
Format
: AAC
Format/Info
: Advanced Audio Codec
Format profile : LC
Codec ID
: 40
Duration
: 20mn 4s
Bit rate mode : Variable
Bit rate
: 160 Kbps
Channel(s)
: 2 channels
Channel positions: Front: L R
Sampling rate : 48.0 KHz
Compression mode : Lossy
Stream size
: 23.0 MiB (5%)
Title
: Stereo
Language
: English

Screenshots

BSkyB - Ant-Man: Behind the Scenes (2015)

BSkyB - Ant-Man: Behind the Scenes (2015)

BSkyB - Ant-Man: Behind the Scenes (2015)



DOWNLOAD LINKS:
Buy Premium To Support Me & Get Resumable Support & Max Speed


Links are Interchangeable - No Password - Single Extraction
Direct Download

Tags: Scenes

BSkyB - Ant-Man: Behind the Scenes (2015) Download via Hotfile Rapidshare Fileserve Megaupload & FileSonic, BSkyB - Ant-Man: Behind the Scenes (2015) free torrent downloads included crack, serial, keygen.BSkyB - Ant-Man: Behind the Scenes (2015) Fast Download via Rapidshare Hotfile Fileserve Filesonic Megaupload, BSkyB - Ant-Man: Behind the Scenes (2015) Torrents and Emule Download or anything related.
Leave a Comment
Your Name:
E-Mail:
Add Comments:

Enter Code: