SBS - The Secret Of The Violin (2015)

Download Now


SBS - The Secret Of The Violin (2015)
SBS - The Secret Of The Violin (2015)
HDTV | 1280x720 | .MKV/AVC @ 4408 Kbps | 59mn 58s | Audio: English MP2 192 kbps, 2 channels | Subs: None | 1.97 GiB
Genre: Documentary

"With Stradivari and Guarneri violins from Cremona in Italy fetching some of the highest prices in auction for any work of art (20 million euros and above), this film throws light on the often murky world of rarefied instruments and their value, both as superb musical instruments and as objects for collectors. Violins, violas and cellos are supposed to be the most beautiful instruments in the world - perfectly constructed and very expensive. For this reason they attract the most glamorous personalities: kings, millionaires, serious dealers in art, but also many fraudsters. Star violinist Daniel Hope knows this scene like no one else. Daniel introduces the world of the super-rich collectors and world-famous violinists."

General
Unique ID
: 245380595352595753670167323407088891319 (0xB89A95692D22C57B8326B59B717C35B7)
Complete name : The.Secrets.Of.The.Violin.mkv
Format
: Matroska
Format version : Version 4 / Version 2
File size
: 1.97 GiB
Duration
: 59mn 58s
Overall bit rate : 4 693 Kbps

Video
ID : 1
Format
: AVC
Format/Info
: Advanced Video Codec
Format profile : [email protected]
Format settings, CABAC : Yes
Format settings, ReFrames : 5 frames
Codec ID
: V_MPEG4/ISO/AVC
Duration
: 59mn 58s
Bit rate
: 4 408 Kbps
Width
: 1 280 pixels
Height
: 720 pixels
Display aspect ratio : 16:9
Frame rate
: 25.000 fps
Color space
: YUV
Chroma subsampling

: 4:2:0
Bit depth
: 8 bits
Scan type
: Progressive
Bits/(Pixel*Frame)

: 0.191
Stream size
: 1.85 GiB (94%)
Writing library : x264 core 148 r2579 73ae2d1
Encoding settings: cabac=1 / ref=5 / deblock=1:-2:-2 / analyse=0x3:0x113 / me=umh / subme=8 / psy=1 / psy_rd=1.00:0.00 / mixed_ref=1 / me_range=16 / chroma_me=1 / trellis=1 / 8x8dct=1 / cqm=0 / deadzone=21,11 / fast_pskip=1 / chroma_qp_offset=-2 / threads=12 / lookahead_threads=2 / sliced_threads=0 / nr=0 / decimate=1 / interlaced=0 / bluray_compat=0 / constrained_intra=0 / bframes=3 / b_pyramid=2 / b_adapt=2 / b_bias=0 / direct=3 / weightb=1 / open_gop=0 / weightp=2 / keyint=250 / keyint_min=25 / scenecut=40 / intra_refresh=0 / rc_lookahead=50 / rc=crf / mbtree=1 / crf=20.0 / qcomp=0.60 / qpmin=0 / qpmax=69 / qpstep=4 / ip_ratio=1.40 / aq=1:1.00
Language
: English
Default
: Yes
Forced
: No
DURATION
: 00:59:58.320000000
NUMBER_OF_FRAMES : 89958
NUMBER_OF_BYTES : 2023656472
_STATISTICS_WRITING_APP : mkvmerge v8.2.0 ('World of Adventure') 64bit
_STATISTICS_WRITING_DATE_UTC : 2015-08-03 19:34:14
_STATISTICS_TAGS : BPS DURATION NUMBER_OF_FRAMES NUMBER_OF_BYTES

Audio
ID : 2
Format
: MPEG Audio
Format version : Version 1
Format profile : Layer 2
Codec ID
: A_MPEG/L2
Codec ID/Hint : MP2
Duration
: 59mn 58s
Bit rate mode : Constant
Bit rate
: 192 Kbps
Channel(s)
: 2 channels
Sampling rate : 48.0 KHz
Compression mode : Lossy
Delay relative to video : 13ms
Stream size
: 82.4 MiB (4%)
Default
: Yes
Forced
: No

Screenshots:

SBS - The Secret Of The Violin (2015)

SBS - The Secret Of The Violin (2015)

SBS - The Secret Of The Violin (2015)

SBS - The Secret Of The Violin (2015)


DOWNLOAD LINKS
Buy Premium From My Links To Get Resumable Support & Max Speed & To Support Me


Links are Interchangeable - No Password - Single Extraction
Direct Download

Tags: Secret, Violin

SBS - The Secret Of The Violin (2015) Download via Hotfile Rapidshare Fileserve Megaupload & FileSonic, SBS - The Secret Of The Violin (2015) free torrent downloads included crack, serial, keygen.SBS - The Secret Of The Violin (2015) Fast Download via Rapidshare Hotfile Fileserve Filesonic Megaupload, SBS - The Secret Of The Violin (2015) Torrents and Emule Download or anything related.
Leave a Comment
Your Name:
E-Mail:
Add Comments:

Enter Code: