PBS American Experience - Panama Canal: Gateway to the American Century (2011)

Download Now


PBS American Experience - Panama Canal: Gateway to the American Century (2011)
PBS American Experience - Panama Canal: Gateway to the American Century (2011)
HDTV | 1280x720 | .MP4/AVC @ 2493 Kbps | 1h 23mn | Audio: English AAC 160 kbps, 2 channels | Subs: English | 1.54 GiB
Genre: Documentary

"Panama Canal was the costliest undertaking in human history. It literally required moving mountains, in one of the most challenging environments on earth, breaking the back of the great range that connects North and South America. This 2-hour program tells the epic story of one of the great engineering triumphs of all time, and one of the most expensive, in both money and lives. It weaves together the stories of the powerful men whose decisions shaped the enterprise, including larger-than-life characters such as Ferdinand de Lesseps and Theodore Roosevelt, with the stories of the ordinary laborers from Jamaica and Barbados whose labor and sacrifice actually dug the canal. Along the way it tells a story of innovation that literally changed the course of history."

General
Complete name : PBS.American.Experience.2011.Panama.Canal.mp4
Format
: MPEG-4
Format profile : Base Media
Codec ID
: isom
File size
: 1.54 GiB
Duration
: 1h 23mn
Overall bit rate mode : Variable
Overall bit rate : 2 656 Kbps
Encoded date : UTC 2015-08-31 00:21:17
Tagged date
: UTC 2015-08-31 00:21:17

Video
ID : 1
Format
: AVC
Format/Info
: Advanced Video Codec
Format profile : [email protected]
Format settings, CABAC : Yes
Format settings, ReFrames : 5 frames
Codec ID
: avc1
Codec ID/Info : Advanced Video Coding
Duration
: 1h 23mn
Bit rate
: 2 493 Kbps
Maximum bit rate : 8 022 Kbps
Width
: 1 280 pixels
Height
: 720 pixels
Display aspect ratio : 16:9
Frame rate mode : Constant
Frame rate
: 29.970 fps
Color space
: YUV
Chroma subsampling

: 4:2:0
Bit depth
: 8 bits
Scan type
: Progressive
Bits/(Pixel*Frame)

: 0.090
Stream size
: 1.45 GiB (94%)
Writing library : Zencoder Video Encoding System
Encoded date : UTC 2013-04-04 16:29:32
Tagged date
: UTC 2015-08-31 00:30:20

Audio
ID : 2
Format
: AAC
Format/Info
: Advanced Audio Codec
Format profile : LC
Codec ID
: 40
Duration
: 1h 23mn
Bit rate mode : Variable
Bit rate
: 160 Kbps
Maximum bit rate : 205 Kbps
Channel(s)
: 2 channels
Channel positions: Front: L R
Sampling rate : 44.1 KHz
Compression mode : Lossy
Stream size
: 95.2 MiB (6%)
Language
: English
Encoded date : UTC 2013-04-04 16:58:27
Tagged date
: UTC 2015-08-31 00:30:20

Text #1
ID : 3
Format
: Timed Text
Codec ID
: tx3g
Duration
: 1h 22mn
Bit rate mode : Variable
Bit rate
: 103 bps
Stream size
: 62.3 KiB (0%)
Language
: English
Encoded date : UTC 2015-08-31 00:30:20
Tagged date
: UTC 2015-08-31 00:30:20

Text #2
ID : 1-CC1
Format
: EIA-608
Muxing mode
: SCTE 128 / DTVCC Transport
Muxing mode, more info : Muxed in Video #1
Duration
: 1h 23mn
Bit rate mode : Constant
Stream size
: 0.00 Byte (0%)
Encoded stream size

: 0.00 Byte (0%)

Screenshots:

PBS American Experience - Panama Canal: Gateway to the American Century (2011)

PBS American Experience - Panama Canal: Gateway to the American Century (2011)

PBS American Experience - Panama Canal: Gateway to the American Century (2011)

PBS American Experience - Panama Canal: Gateway to the American Century (2011)


DOWNLOAD LINKS
Buy Premium From My Links To Get Resumable Support & Max Speed & To Support Me


Links are Interchangeable - No Password - Single Extraction
Direct Download

Tags: American, Experience, Panama, Gateway, American, Century

PBS American Experience - Panama Canal: Gateway to the American Century (2011) Download via Hotfile Rapidshare Fileserve Megaupload & FileSonic, PBS American Experience - Panama Canal: Gateway to the American Century (2011) free torrent downloads included crack, serial, keygen.PBS American Experience - Panama Canal: Gateway to the American Century (2011) Fast Download via Rapidshare Hotfile Fileserve Filesonic Megaupload, PBS American Experience - Panama Canal: Gateway to the American Century (2011) Torrents and Emule Download or anything related.
Leave a Comment
Your Name:
E-Mail:
Add Comments:

Enter Code: