ITV - Roman Britain: From the Air (2015)

Download Now

ITV - Roman Britain: From the Air (2015)

ITV - Roman Britain: From the Air (2015)
HDTV | 1280x720 | MKV/x264 @ 3015 Kbps | 46mn | Audio: English AAC 160 kbps, 2 channels | Subs: None | 1.03 GB
Genre: Documentary

In a unique journey across Britain by helicopter, Christine Bleakley and historian Dr Michael Scott tell the story of what life was like for Romans and Britons 2000 years ago. The Romans were the first to invade and occupy Britain and their architecture and way of life have left a legacy that's lasted 1600 years. From Hadrian's Wall to the 6000 seat Amphitheatre at Caerleon, Britain has some of the most remarkable Roman remains in Europe.
Christine Bleakley takes to the skies in a helicopter to see the Roman remains that are best viewed from the air. Meanwhile, historian Michael Scott tracks down the fine details of Roman Britain on the ground.

Their journey takes them from London, across to Wales and north to the spectacular Hadrian's Wall. The programme visits fascinating sites including the best-preserved Roman legionary barracks anywhere in Europe, the best-preserved outdoor Amphitheatre in Britain and Roman town walls that stretch for over a mile.

More info

Video
ID
: 1
Format : AVC
Format/Info

: Advanced Video Codec
Format profile : [email protected]
Format settings, CABAC : No
Format settings, ReFrames : 1 frame
Codec ID : avc1
Codec ID/Info : Advanced Video Coding
Duration : 46mn 31s
Bit rate mode : Variable
Bit rate : 3 015 Kbps
Width : 1 280 pixels
Height : 720 pixels
Display aspect ratio : 16:9
Frame rate mode : Constant
Frame rate

: 25.000 fps
Color space

: YUV
Chroma subsampling : 4:2:0
Bit depth: 8 bits
Scan type: Progressive
Bits/(Pixel*Frame) : 0.131
Stream size

: 1 003 MiB (95%)
Encoded date : UTC 2015-09-25 13:29:54
Tagged date

: UTC 2015-09-25 13:29:54

Audio
ID
: 2
Format : AAC
Format/Info

: Advanced Audio Codec
Format version : Version 4
Format profile : LC
Codec ID : 40
Duration : 46mn 31s
Bit rate mode : Variable
Bit rate : 160 Kbps
Channel(s)

: 2 channels
Channel positions : Front: L R
Sampling rate : 48.0 KHz
Compression mode : Lossy
Stream size

: 53.2 MiB (5%)
Encoded date : UTC 2015-09-25 13:29:54
Tagged date

: UTC 2015-09-25 13:29:54

ITV - Roman Britain: From the Air (2015)


DOWNLOAD LINKS
Buy Premium From My Links To Get Resumable Support & Max Speed & To Support Me


Links are Interchangeable - No Password - Single Extraction
Direct Download

Tags: Britain

ITV - Roman Britain: From the Air (2015) Download via Hotfile Rapidshare Fileserve Megaupload & FileSonic, ITV - Roman Britain: From the Air (2015) free torrent downloads included crack, serial, keygen.ITV - Roman Britain: From the Air (2015) Fast Download via Rapidshare Hotfile Fileserve Filesonic Megaupload, ITV - Roman Britain: From the Air (2015) Torrents and Emule Download or anything related.
Leave a Comment
Your Name:
E-Mail:
Add Comments:

Enter Code: