Finders Keepers (2015)

Download Now

Finders Keepers (2015)

Finders Keepers (2015)
WEB-DL 720p | MKV / [email protected] kb/s | 1280x720 | 1h 23mn | 2.58 GB | English: AC3, 384 kb/s (6 ch)
Genre: Documentary

Shannon Whisnant purchased a grill at an auction. Inside the grill was an amputated leg. What follows is a story centered on the enterprising Whisnant and John Wood, the man whose leg wound up in the grill due to an odd chain of events.
IMDB - 1 win & 1 nomination.



General
Unique ID : 241759943744707704991727706932983429279 (0xB5E14581191CD4AB87DD2710702CF89F)
Complete name : C:\Users\Administrator\Desktop\Finders.Keepers.2015.720p.WEB-DL.DD5.1.H.264-Coo7.mkv
Format

: Matroska
Format version : Version 4 / Version 2
File size : 2.58 GiB
Duration : 1h 23mn
Overall bit rate : 4 410 Kbps
Encoded date : UTC 2015-10-08 21:48:17
Writing application : mkvmerge v7.8.0 ('River Man') 64bit built on Mar 27 2015 16:31:37
Writing library : libebml v1.3.1 + libmatroska v1.4.2
DURATION : 01:23:40.256000000
NUMBER_OF_FRAMES : 156883
NUMBER_OF_BYTES : 240972288
_STATISTICS_WRITING_APP : mkvmerge v7.8.0 ('River Man') 64bit built on Mar 27 2015 16:31:37
_STATISTICS_WRITING_DATE_UT : 2015-10-08 21:48:17
_STATISTICS_TAGS : BPS DURATION NUMBER_OF_FRAMES NUMBER_OF_BYTES

Video
ID : 1
Format

: AVC
Format/Info : Advanced Video Codec
Format profile : [email protected]
Format settings, CABAC : No
Format settings, ReFrames : 2 frames
Codec ID : V_MPEG4/ISO/AVC
Duration : 1h 23mn
Bit rate : 3 938 Kbps
Width

: 1 280 pixels
Height

: 720 pixels
Display aspect ratio : 16:9
Frame rate mode : Constant
Frame rate : 23.976 fps
Color space : YUV
Chroma subsampling : 4:2:0
Bit depth : 8 bits
Scan type : Progressive
Bits/(Pixel*Frame) : 0.178
Stream size : 2.30 GiB (89%)
Language : English
Default : Yes
Forced

: No
Color range : Limited
Color primaries : BT.709
Transfer characteristics : BT.709
Matrix coefficients : BT.709

Audio
ID : 2
Format

: AC-3
Format/Info : Audio Coding 3
Mode extension : CM (complete main)
Format settings, Endianness : Big
Codec ID : A_AC3
Duration : 1h 23mn
Bit rate mode : Constant
Bit rate : 384 Kbps
Channel(s) : 6 channels
Channel positions : Front: L C R, Side: L R, LFE
Sampling rate : 48.0 KHz
Compression mode : Lossy
Stream size : 230 MiB (9%)
Language : English
Default : Yes
Forced

: No

Menu
00:00:00.000 : en:The Backstory
00:16:10.000 : en:John's Family
00:33:36.000 : en:Shannon Wants
00:43:45.000 : en:Not a Good Time for John to be Famous
01:03:58.000 : en:John’s and his family/Shannon and his Fame

Screenshots

Finders Keepers (2015)

Finders Keepers (2015)

Finders Keepers (2015)


DOWNLOAD LINKS:


No Password
Direct Download

Tags: Finders, Keepers

Finders Keepers (2015) Download via Hotfile Rapidshare Fileserve Megaupload & FileSonic, Finders Keepers (2015) free torrent downloads included crack, serial, keygen.Finders Keepers (2015) Fast Download via Rapidshare Hotfile Fileserve Filesonic Megaupload, Finders Keepers (2015) Torrents and Emule Download or anything related.
Leave a Comment
Your Name:
E-Mail:
Add Comments:

Enter Code: