Big Picture Media - The Corporation (2003)

Download Now


Big Picture Media - The Corporation (2003)
Big Picture Media - The Corporation (2003)
DVDRip | 704x400 | .MKV/AVC @ 1881 Kbps | 2h 24mn | Audio: English AC3 192 kbps, 2 channels | Subs: English | 2.09 GiB
Genre: Documentary

"One hundred and fifty years ago, the corporation was a relatively insignificant entity. Today, it is a vivid, dramatic and pervasive presence in all our lives. Like the Church, the Monarchy and the Communist Party in other times and places, the corporation is today's dominant institution. But history humbles dominant institutions. All have been crushed, belittled or absorbed into some new order. The corporation is unlikely to be the first institution to defy history. Based on Joel Bakan's book, "The Corporation: The Pathological Pursuit of Profit and Power," this documentary is a timely, critical inquiry that examines the very nature of the corporation--its inner workings, curious history, controversial impacts and possible futures. We begin by learning that under the law, corporations have all the rights and yet few of the responsibilities of people."

Unique ID
: 252393632089165469184539571695989809686 (0xBDE13ED14F5F65169732F8F7DE53E216)
Complete name : The.Corporation.mkv
Format
: Matroska
Format version : Version 4 / Version 2
File size
: 2.09 GiB
Duration
: 2h 24mn
Overall bit rate : 2 079 Kbps

Video
ID : 1
Format
: AVC
Format/Info
: Advanced Video Codec
Format profile : [email protected]
Format settings, CABAC : Yes
Format settings, ReFrames : 6 frames
Codec ID
: V_MPEG4/ISO/AVC
Duration
: 2h 24mn
Bit rate
: 1 881 Kbps
Width
: 704 pixels
Height
: 400 pixels
Display aspect ratio : 16:9
Frame rate mode : Constant
Frame rate
: 29.970 fps
Color space
: YUV
Chroma subsampling

: 4:2:0
Bit depth
: 8 bits
Scan type
: Progressive
Bits/(Pixel*Frame)

: 0.223
Stream size
: 1.86 GiB (89%)
Title
: Corporation
Writing library : x264 core 66 r1092 60f4cd8
Encoding settings: cabac=1 / ref=6 / deblock=1:-1:-1 / analyse=0x3:0x113 / me=umh / subme=7 / psy_rd=1.0:1.0 / mixed_ref=1 / me_range=16 / chroma_me=1 / trellis=2 / 8x8dct=1 / cqm=0 / deadzone=21,11 / chroma_qp_offset=-4 / threads=12 / nr=0 / decimate=1 / mbaff=0 / bframes=6 / b_pyramid=1 / b_adapt=2 / b_bias=0 / direct=3 / wpredb=1 / keyint=250 / keyint_min=25 / scenecut=40(pre) / rc=2pass / bitrate=1881 / ratetol=1.0 / qcomp=0.60 / qpmin=10 / qpmax=51 / qpstep=4 / cplxblur=20.0 / qblur=0.5 / vbv_maxrate=25000 / vbv_bufsize=14000 / ip_ratio=1.40 / pb_ratio=1.30 / aq=1:1.00
Default
: Yes
Forced
: No

Audio
ID : 2
Format
: AC-3
Format/Info
: Audio Coding 3
Format profile : Dolby Digital
Mode extension : CM (complete main)
Format settings, Endianness : Big
Codec ID
: A_AC3
Duration
: 2h 24mn
Bit rate mode : Constant
Bit rate
: 192 Kbps
Channel(s)
: 2 channels
Channel positions: Front: L R
Sampling rate : 48.0 KHz
Compression mode : Lossy
Stream size
: 198 MiB (9%)
Language
: English
Default
: Yes
Forced
: No

Text
ID : 3
Format
: VobSub
Muxing mode
: zlib
Codec ID
: S_VOBSUB
Language
: English
Default
: No
Forced
: No

Screenshots:

Big Picture Media - The Corporation (2003)

Big Picture Media - The Corporation (2003)

Big Picture Media - The Corporation (2003)

Big Picture Media - The Corporation (2003)


DOWNLOAD LINKS
Buy Premium From My Links To Get Resumable Support & Max Speed & To Support Me


Links are Interchangeable - No Password - Single Extraction
Direct Download

Tags: Picture, Corporation

Big Picture Media - The Corporation (2003) Download via Hotfile Rapidshare Fileserve Megaupload & FileSonic, Big Picture Media - The Corporation (2003) free torrent downloads included crack, serial, keygen.Big Picture Media - The Corporation (2003) Fast Download via Rapidshare Hotfile Fileserve Filesonic Megaupload, Big Picture Media - The Corporation (2003) Torrents and Emule Download or anything related.
Leave a Comment
Your Name:
E-Mail:
Add Comments:

Enter Code: