CBC - The Nature of Things: It Takes Guts (2015)

Download Now


CBC - The Nature of Things: It Takes Guts (2015)
CBC - The Nature of Things: It Takes Guts (2015)
HDTV | 1280x720 | .MKV/AVC @ 3706 Kbps | 44mn 2s | Audio: English AC3 384 kbps, 6 channels | Subs: None | 1.28 GiB
Genre: Documentary

"It Takes Guts reveals fascinating new discoveries about gut microbes; our body's secret weapon in the battle of the bulge."

General
Unique ID
: 172268655825828213679724891249945408579 (0x8199BC7C6A5F4808B8147D51A724F443)
Complete name : The.Nature.Of.Things.It.Takes.Guts.mkv
Format
: Matroska
Format version : Version 4 / Version 2
File size
: 1.28 GiB
Duration
: 44mn 2s
Overall bit rate : 4 173 Kbps

Video
ID : 1
Format
: AVC
Format/Info
: Advanced Video Codec
Format profile : [email protected]
Format settings, CABAC : Yes
Format settings, ReFrames : 5 frames
Codec ID
: V_MPEG4/ISO/AVC
Duration
: 44mn 2s
Bit rate
: 3 706 Kbps
Width
: 1 280 pixels
Height
: 720 pixels
Display aspect ratio : 16:9
Frame rate mode : Constant
Frame rate
: 23.976 fps
Color space
: YUV
Chroma subsampling

: 4:2:0
Bit depth
: 8 bits
Scan type
: Progressive
Bits/(Pixel*Frame)

: 0.168
Stream size
: 1.14 GiB (89%)
Writing library : x264 core 148 r2638 7599210
Encoding settings: opencl=1 / cabac=1 / ref=5 / deblock=1:0:0 / analyse=0x3:0x113 / me=umh / subme=8 / psy=1 / psy_rd=1.00:0.00 / mixed_ref=1 / me_range=16 / chroma_me=1 / trellis=1 / 8x8dct=1 / cqm=0 / deadzone=21,11 / fast_pskip=1 / chroma_qp_offset=-2 / threads=22 / lookahead_threads=3 / sliced_threads=0 / nr=0 / decimate=1 / interlaced=0 / bluray_compat=0 / constrained_intra=0 / bframes=3 / b_pyramid=2 / b_adapt=2 / b_bias=0 / direct=3 / weightb=1 / open_gop=0 / weightp=2 / keyint=250 / keyint_min=23 / scenecut=40 / intra_refresh=0 / rc_lookahead=50 / rc=crf / mbtree=1 / crf=20.0 / qcomp=0.60 / qpmin=0 / qpmax=69 / qpstep=4 / ip_ratio=1.40 / aq=1:1.00
Language
: English
Default
: Yes
Forced
: No
Color range
: Limited
Matrix coefficients

: BT.709
DURATION
: 00:44:02.932000000
NUMBER_OF_FRAMES : 63367
NUMBER_OF_BYTES : 1251255331
_STATISTICS_WRITING_APP : mkvmerge v7.2.0 ('On Every Street') 64bit built on Sep 13 2014 15:52:10
_STATISTICS_WRITING_DATE_UTC : 2015-10-30 16:11:23
_STATISTICS_TAGS : BPS DURATION NUMBER_OF_FRAMES NUMBER_OF_BYTES

Audio
ID : 2
Format
: AC-3
Format/Info
: Audio Coding 3
Mode extension : CM (complete main)
Format settings, Endianness : Big
Codec ID
: A_AC3
Duration
: 44mn 2s
Bit rate mode : Constant
Bit rate
: 384 Kbps
Channel(s)
: 6 channels
Channel positions: Front: L C R, Side: L R, LFE
Sampling rate : 48.0 KHz
Compression mode : Lossy
Stream size
: 121 MiB (9%)
Default
: Yes
Forced
: No

Screenshots:

CBC - The Nature of Things: It Takes Guts (2015)

CBC - The Nature of Things: It Takes Guts (2015)

CBC - The Nature of Things: It Takes Guts (2015)

CBC - The Nature of Things: It Takes Guts (2015)


DOWNLOAD LINKS
Buy Premium From My Links To Get Resumable Support & Max Speed & To Support Me


Links are Interchangeable - No Password - Single Extraction
Direct Download

Tags: Nature, Things

CBC - The Nature of Things: It Takes Guts (2015) Download via Hotfile Rapidshare Fileserve Megaupload & FileSonic, CBC - The Nature of Things: It Takes Guts (2015) free torrent downloads included crack, serial, keygen.CBC - The Nature of Things: It Takes Guts (2015) Fast Download via Rapidshare Hotfile Fileserve Filesonic Megaupload, CBC - The Nature of Things: It Takes Guts (2015) Torrents and Emule Download or anything related.
Leave a Comment
Your Name:
E-Mail:
Add Comments:

Enter Code: