ITV - Alexander Armstrong:In the Land of the Midnight Sun (2015)

Download Now


ITV - Alexander Armstrong:In the Land of the Midnight Sun (2015)
ITV - Alexander Armstrong:In the Land of the Midnight Sun (2015)
HDTV | 1280x720 | .MP4/AVC @ 3014 Kbps | 3x~45min | Audio: English AAC 160 kbps, 2 channels | Subs: None | 3.09 GiB
Genre: Documentary

"The television presenter and comedian takes on an epic 8,000-mile journey halfway around the Arctic Circle deep in mid-winter, a spectacular but deadly time of year to see the unforgiving, ice-bound region. His odyssey is full of surprises as he witnesses natural wonders and discovers the magnetic lure of the far north."

Part 1:
The first edition sees Alexander begin in Scandinavia and head toward Iceland, as he swims with locals in the ocean, faces the worst storm in 25 years, and goes down the world's first major tunnel to be built into the heart of a glacier.

Part 2:
The presenter continues his epic 8,000-mile journey halfway around the Arctic Circle deep in mid-winter. He embarks on the second leg of his odyssey, beginning in Iceland before travelling to the icy wilderness of Greenland. Along the way, Alexander snorkels over a vast underwater crevasse separating two continental landmasses and wrestles with a female Viking. He also joins two Danish Special Forces soldiers and their huskies, who have the loneliest job on the planet, and witnesses an array of natural wonders.

Part 3:
On the third and final leg of his odyssey, he begins in Northern Canada before travelling into the icy wilderness of Alaska. Along the way, Alexander meets people who have headed north to discover adventure and seek their fortune, as well as digging for gold with modern day prospectors. He also takes on the challenge of driving up one of the deadliest roads in the world, before concluding his travels on the international dateline between America and Russia

General
Complete name : Alexander.Armstrong.In.The.Land.Of.The.Midnight.Sun.3of3.mp4
Format
: MPEG-4
Format profile : Base Media
Codec ID
: isom
File size
: 1.02 GiB
Duration
: 45mn 59s
Overall bit rate mode : Variable
Overall bit rate : 3 179 Kbps

Video
ID : 1
Format
: AVC
Format/Info
: Advanced Video Codec
Format profile : [email protected]
Format settings, CABAC : No
Format settings, ReFrames : 1 frame
Format settings, GOP : M=1, N=12
Codec ID
: avc1
Codec ID/Info : Advanced Video Coding
Duration
: 45mn 59s
Bit rate
: 3 014 Kbps
Width
: 1 280 pixels
Height
: 720 pixels
Display aspect ratio : 16:9
Frame rate mode : Constant
Frame rate
: 25.000 fps
Color space
: YUV
Chroma subsampling

: 4:2:0
Bit depth
: 8 bits
Scan type
: Progressive
Bits/(Pixel*Frame)

: 0.131
Stream size
: 991 MiB (95%)
Encoded date : UTC 2015-10-29 22:54:05
Tagged date
: UTC 2015-10-29 22:54:05

Audio
ID : 2
Format
: AAC
Format/Info
: Advanced Audio Codec
Format profile : LC
Codec ID
: 40
Duration
: 45mn 58s
Bit rate mode : Variable
Bit rate
: 160 Kbps
Channel(s)
: 2 channels
Channel positions: Front: L R
Sampling rate : 48.0 KHz
Compression mode : Lossy
Stream size
: 52.6 MiB (5%)
Encoded date : UTC 2015-10-29 22:54:05
Tagged date
: UTC 2015-10-29 22:54:05

Screenshots:

ITV - Alexander Armstrong:In the Land of the Midnight Sun (2015)

ITV - Alexander Armstrong:In the Land of the Midnight Sun (2015)

ITV - Alexander Armstrong:In the Land of the Midnight Sun (2015)

ITV - Alexander Armstrong:In the Land of the Midnight Sun (2015)


DOWNLOAD LINKS
Buy Premium From My Links To Get Resumable Support & Max Speed & To Support Me

Rapidgator.net:
http://rapidgator.net/file/d1e7eb6e962b3c2676f0a8eb2b32c46a/03jh1.ITV.A.AI.t.L.o.t.M.S.2015.part1.rar.html
http://rapidgator.net/file/dfb7184f3993c58afd63d014558d01e5/03jh1.ITV.A.AI.t.L.o.t.M.S.2015.part2.rar.html
http://rapidgator.net/file/fff8a67ca9c9b4e992f013ac2c0adb87/03jh1.ITV.A.AI.t.L.o.t.M.S.2015.part3.rar.html
http://rapidgator.net/file/402467530007a1608b4884abad057cf2/03jh1.ITV.A.AI.t.L.o.t.M.S.2015.part4.rar.html
http://rapidgator.net/file/463392bb3ba92aa936d4cefc561562c9/03jh1.ITV.A.AI.t.L.o.t.M.S.2015.part5.rar.html
http://rapidgator.net/file/6c46fc8c8f83413a2bb0dedd670288f3/03jh1.ITV.A.AI.t.L.o.t.M.S.2015.part6.rar.html
http://rapidgator.net/file/291be54f5eb01418f3b0784da0ad8f66/03jh1.ITV.A.AI.t.L.o.t.M.S.2015.part7.rar.html
http://rapidgator.net/file/b2d6c3bf609efc0c26d8490e3a74ef2c/03jh1.ITV.A.AI.t.L.o.t.M.S.2015.part8.rar.html

Uploaded.net:
http://uploaded.net/file/fwf7kw28/03jh1.ITV.A.AI.t.L.o.t.M.S.2015.part1.rar
http://uploaded.net/file/4qo1vmjp/03jh1.ITV.A.AI.t.L.o.t.M.S.2015.part2.rar
http://uploaded.net/file/bbeby0ey/03jh1.ITV.A.AI.t.L.o.t.M.S.2015.part3.rar
http://uploaded.net/file/e51wk9qg/03jh1.ITV.A.AI.t.L.o.t.M.S.2015.part4.rar
http://uploaded.net/file/pd7gtv1k/03jh1.ITV.A.AI.t.L.o.t.M.S.2015.part5.rar
http://uploaded.net/file/i31zwur0/03jh1.ITV.A.AI.t.L.o.t.M.S.2015.part6.rar
http://uploaded.net/file/4e0m6pol/03jh1.ITV.A.AI.t.L.o.t.M.S.2015.part7.rar
http://uploaded.net/file/i7n13ze8/03jh1.ITV.A.AI.t.L.o.t.M.S.2015.part8.rar

OBoom.com:
https://www.oboom.com/O046L0IM/03jh1.ITV.A.AI.t.L.o.t.M.S.2015.part1.rar
https://www.oboom.com/6O99UZJT/03jh1.ITV.A.AI.t.L.o.t.M.S.2015.part2.rar
https://www.oboom.com/4DIL4G3Q/03jh1.ITV.A.AI.t.L.o.t.M.S.2015.part3.rar
https://www.oboom.com/S580H2LI/03jh1.ITV.A.AI.t.L.o.t.M.S.2015.part4.rar
https://www.oboom.com/X027SHEY/03jh1.ITV.A.AI.t.L.o.t.M.S.2015.part5.rar
https://www.oboom.com/FUI8EDW1/03jh1.ITV.A.AI.t.L.o.t.M.S.2015.part6.rar
https://www.oboom.com/V8T1UU7I/03jh1.ITV.A.AI.t.L.o.t.M.S.2015.part7.rar
https://www.oboom.com/TU5ZF8L1/03jh1.ITV.A.AI.t.L.o.t.M.S.2015.part8.rar

Links are Interchangeable - No Password - Single Extraction
Direct Download

Tags: Alexander, Armstrong, Midnight

ITV - Alexander Armstrong:In the Land of the Midnight Sun (2015) Download via Hotfile Rapidshare Fileserve Megaupload & FileSonic, ITV - Alexander Armstrong:In the Land of the Midnight Sun (2015) free torrent downloads included crack, serial, keygen.ITV - Alexander Armstrong:In the Land of the Midnight Sun (2015) Fast Download via Rapidshare Hotfile Fileserve Filesonic Megaupload, ITV - Alexander Armstrong:In the Land of the Midnight Sun (2015) Torrents and Emule Download or anything related.
Leave a Comment
Your Name:
E-Mail:
Add Comments:

Enter Code: