Chimpanzee (2012)

Download Now


Chimpanzee (2012)
Chimpanzee (2012)
BDRip | 720x404 | .MP4/AVC @ 1863 Kbps | 1h 18mn | 1.21 GiB
Audio: English AAC 177 kbps, 2 channels; Polish AAC 173 kbps, 2 channels | Subs: None
Genre: Documentary

"Oscar, a baby chimpanzee is enjoying his life with his mother in the jungles along the Ivory Coast. Without warning, young Oscar is tragically orphaned during an attack from a rival group of chimpanzees. Afterwards, he attempts to survive on his own, and to be accepted by the other chimps. But Oscar struggles, until he is surprisingly adopted by the Alpha Male of his group."

More info

General
Complete name : chimpanzee.2012.pl.bdrip.x264.mp4
Format
: MPEG-4
Format profile : Base Media
Codec ID
: isom
File size
: 1.21 GiB
Duration
: 1h 18mn
Overall bit rate mode : Variable
Overall bit rate : 2 218 Kbps

Video
ID : 1
Format
: AVC
Format/Info
: Advanced Video Codec
Format profile : [email protected]
Format settings, CABAC : Yes
Format settings, ReFrames : 8 frames
Codec ID
: avc1
Codec ID/Info : Advanced Video Coding
Duration
: 1h 18mn
Bit rate
: 1 863 Kbps
Maximum bit rate : 12.5 Mbps
Width
: 720 pixels
Height
: 404 pixels
Display aspect ratio : 16:9
Frame rate mode : Constant
Frame rate
: 23.976 fps
Color space
: YUV
Chroma subsampling

: 4:2:0
Bit depth
: 8 bits
Scan type
: Progressive
Bits/(Pixel*Frame)

: 0.267
Stream size
: 1.02 GiB (84%)
Writing library : x264 core 148 r2638 7599210
Encoding settings: cabac=1 / ref=8 / deblock=1:0:0 / analyse=0x3:0x133 / me=umh / subme=9 / psy=1 / psy_rd=1.00:0.00 / mixed_ref=1 / me_range=16 / chroma_me=1 / trellis=2 / 8x8dct=1 / cqm=0 / deadzone=21,11 / fast_pskip=0 / chroma_qp_offset=-2 / threads=12 / lookahead_threads=1 / sliced_threads=0 / nr=0 / decimate=1 / interlaced=0 / bluray_compat=0 / constrained_intra=0 / bframes=3 / b_pyramid=2 / b_adapt=2 / b_bias=0 / direct=3 / weightb=1 / open_gop=0 / weightp=2 / keyint=250 / keyint_min=23 / scenecut=40 / intra_refresh=0 / rc_lookahead=60 / rc=crf / mbtree=1 / crf=19.0 / qcomp=0.60 / qpmin=0 / qpmax=69 / qpstep=4 / ip_ratio=1.40 / aq=1:1.00
Encoded date : UTC 2015-11-03 21:23:57
Tagged date
: UTC 2015-11-03 21:24:15
Color range
: Limited
Matrix coefficients

: BT.709

Audio #1
ID : 2
Format
: AAC
Format/Info
: Advanced Audio Codec
Format profile : LC
Codec ID
: 40
Duration
: 1h 18mn
Bit rate mode : Variable
Bit rate
: 173 Kbps
Maximum bit rate : 223 Kbps
Channel(s)
: 2 channels
Channel positions: Front: L R
Sampling rate : 48.0 KHz
Compression mode : Lossy
Stream size
: 96.8 MiB (8%)
Title
: Polish AAC-LC 173 kbps
Language
: Polish
Encoded date : UTC 2015-11-03 20:07:29
Tagged date
: UTC 2015-11-03 21:24:15

Audio #2
ID : 3
Format
: AAC
Format/Info
: Advanced Audio Codec
Format profile : LC
Codec ID
: 40
Duration
: 1h 18mn
Bit rate mode : Variable
Bit rate
: 177 Kbps
Maximum bit rate : 226 Kbps
Channel(s)
: 2 channels
Channel positions: Front: L R
Sampling rate : 48.0 KHz
Compression mode : Lossy
Stream size
: 99.0 MiB (8%)
Title
: English AAC-LC 177 kbps
Language
: English
Encoded date : UTC 2015-11-03 20:10:51
Tagged date
: UTC 2015-11-03 21:24:15

Screenshots:

Chimpanzee (2012)

Chimpanzee (2012)


DOWNLOAD LINKS
Buy Premium From My Links To Get Resumable Support & Max Speed & To Support Me


Links are Interchangeable - No Password - Single Extraction
Direct Download

Tags: Chimpanzee

Chimpanzee (2012) Download via Hotfile Rapidshare Fileserve Megaupload & FileSonic, Chimpanzee (2012) free torrent downloads included crack, serial, keygen.Chimpanzee (2012) Fast Download via Rapidshare Hotfile Fileserve Filesonic Megaupload, Chimpanzee (2012) Torrents and Emule Download or anything related.
Leave a Comment
Your Name:
E-Mail:
Add Comments:

Enter Code: